你所知道的4K资源这里全部都有 4K电影 | 4K视频 | 4K壁纸 | 4K MV 怎么播放4K视频 | 4K电视演示片

教你玩转4K私人与家庭影院存储 NAS组装 | 黑群辉 家庭/影院Nas论坛

4K家庭影院信号源与视频设备知识 4K蓝光高清播放机 - 那个品牌好? 4K投影机论坛 | 4K电视机论坛

手把手教你搭建属于自己的家庭影院 4K家庭影院案例 | 家庭影院音频 4K家庭影院论坛

查看: 134|回复: 1

[8bit.SDR] 无敌破坏王/破坏王拉尔夫 Wreck-It.Ralph.2012.2160p.BluRay.x264.8bit.SDR.TrueHD.7.1.Atmos-SWTYBLZ 14.03GB

[复制链接]

 成长值: 1040

级别:资源管理组

注册时间
2017-10-20
最后登录
2019-4-23
听众
0
收听
0
主题
76979
蓝光币
8533 枚
贡献
1287 点
发表于 2018-11-9 09:43:07 | 显示全部楼层 |阅读模式
无敌破坏王/破坏王拉尔夫 Wreck-It.Ralph.2012.2160p.BluRay.x264.8bit.SDR.TrueHD.7.1.Atmos-SWTYBLZ 14.03GB-1.jpg
◎译  名 无敌破坏王 / 破坏王拉尔夫 / 破坏王大冒险
◎片  名 无敌破坏王 Wreck-It Ralph
◎年  代 2012
◎国  家 美国
◎类  别 笑剧 / 动画 / 奇异 / 冒险
◎语  言 英语
◎上映日期 2012-11-06(中国大陆) / 2012-11-02(美国)
◎IMDb评分  7.7/10 from 319,842 users
◎IMDb链接  http://www.imdb.com/title/tt1772341/
◎豆瓣评分 8.7/10 from 215739 users
◎豆瓣链接 https://movie.douban.com/subject/6534248/
◎片  长 101分钟
◎导  演 瑞奇·摩尔
◎主  演 约翰·C·赖利
      萨拉·西尔弗曼
      杰克·麦克布瑞尔
      简·林奇
      艾伦·图代克
      敏迪·卡灵
      乔·洛·特鲁格里奥
      艾德·奥尼尔
      丹尼斯·海斯伯特
      伊迪·迈克莱尔
      雷蒙德·S·佩尔西
      杰斯·哈梅尔
      瑞秋·哈里斯
      斯盖拉·阿斯丁
      亚当·卡罗拉
      霍拉提奥·桑斯
      莫里斯·拉马奇
      斯戴芬妮·斯考特
      约翰·迪·玛吉欧
      瑞奇·摩尔
      凯蒂·洛斯
      贾米·埃曼
      乔西·挺拔尼达
      辛贝·沃克
      塔克·吉莫尔
      布兰登·斯考特
      蒂姆·梅尔滕斯
      凯文·迪特斯
      杰洛·里佛斯
      马丁·贾维斯
      布莱恩·克辛格
      罗杰·克莱格·史姑娘
      菲尔·约翰斯顿
      鲁本·兰登
      凯尔·赫伯特
      洁米·斯贝勒·罗伯茨
      尼克·格里姆肖

◎简  介 

  无敌破坏王(约翰·C·赖利 John C. Reilly 配音)生活在一个80年月出品的低精度游戏中。他的设定身份是一个反派,天天的生活就是在游戏《快手阿修》中大搞破坏,厥后由玩家操纵的豪杰人物快手阿修(杰克·麦克布瑞尔 Jack McBrayer 配音) 会实时赶到停止修补,赢得奖牌,包揽一切光荣。身为反派,破坏王厌倦了自己的生活,眼看阿修被成功者的光环围绕,自己却日复一日在无趣中过活,他终究决议改变。纯真的他以为只要自己也能获得一枚奖牌,便可以摆脱反派的身份,因而某日在游戏厅停业后,破坏王偷偷分开了自己的游戏,前往闯荡其他电子游戏的天下。
  在途中,破坏王结识了来自《豪杰使命》的刻毒队长(简·林奇 Jane Lynch 配音)和来自90年月糖果赛车游戏《甜蜜冲刺》的小女孩云妮(萨拉·丝沃曼 Sarah Silverman 配音)。后者胡想着能上场角逐,但其身份也不答应她胡想成真。破坏王所属的游戏《快手阿修》由于落空了他被认定为系统毛病,如不尽快返回,则游戏就会被永久删除;而《甜蜜冲刺》的游戏天下则在静静酝酿着一场庞大的、威胁到全部游戏天下的诡计。这也许是无敌破坏王实现胡想的机遇,但也能够是一条不归路…… 他可以改变乾坤,成为一位实在的豪杰吗?

◎获奖情况 

  第85届奥斯卡金像奖 (2013)
  最好动画长片(提名) 瑞奇·摩尔

  第70届金球奖 (2013)
  电影类 最好动画长片(提名)

  第40届动画安妮奖 (2013)
  最好动画长片
  最好导演 瑞奇·摩尔
  最好编剧 菲尔·约翰斯顿 /  珍妮弗·李
  最好配音 艾伦·图代克
  最好配乐 Jamie Houston /  亨利·杰克曼 /  秋元康 /  亚当·杨
  最好剪辑(提名)
  最好分镜(提名)
  最好脚色设想(提名) Minkyu Lee
  最好动画结果(提名)

  第84届美国国家批评协会奖 (2013)
  最好动画片

  第18届美国批评家挑选电影奖 (2013)
  最好动画片

  第17届金卫星奖 (2012)
  电影部分 最好动画片(提名)

  第11届华盛顿影评人协会奖 (2012)
  最好动画片(提名)

  第17届圣地亚哥影评人协会奖 (2012)
  最好动画片(提名)

  第25届芝加哥影评人协会奖 (2012)
  最好动画片(提名)

  第12届凤凰城影评人协会奖 (2012)
  最好原创歌曲(提名) 亚当·杨
  最好动画片

  第3届豆瓣电影鑫像奖 (2013)
  鑫豆单元 最好动画长片


  1. Video
  2. ID                                       : 1
  3. Format                                   : AVC
  4. Format/Info                              : Advanced Video Codec
  5. Format profile                           : [url=/cdn-cgi/l/email-protection][email protected][/url]
  6. Format settings                          : CABAC / 7 Ref Frames
  7. Format settings, CABAC                   : Yes
  8. Format settings, RefFrames               : 7 frames
  9. Codec ID                                 : V_MPEG4/ISO/AVC
  10. Duration                                 : 1 h 41 min
  11. Bit rate                                 : 14.3 Mb/s
  12. Width                                    : 3 840 pixels
  13. Height                                   : 1 608 pixels
  14. Display aspect ratio                     : 2.40:1
  15. Frame rate mode                          : Constant
  16. Frame rate                               : 23.976 (24000/1001) FPS
  17. Color space                              : YUV
  18. Chroma subsampling                       : 4:2:0
  19. Bit depth                                : 8 bits
  20. Scan type                                : Progressive
  21. Bits/(Pixel*Frame)                       : 0.097
  22. Stream size                              : 10.1 GiB (73%)
  23. Title                                    : Wreck-It.Ralph.2012.2160p.BluRay.x264.8bit.SDR.TrueHD.7.1.Atmos-SWTYBLZ
  24. Writing library                          : x264 core 157 r2935 545de2f
  25. Encoding settings                        : cabac=1 / ref=7 / deblock=1:1:1 / analyse=0x3:0x113 / me=umh / subme=10 / psy=1 / psy_rd=0.40:0.00 / mixed_ref=1 / me_range=48 / chroma_me=1 / trellis=2 / 8x8dct=1 / cqm=0 / deadzone=21,11 / fast_pskip=1 / chroma_qp_offset=-2 / threads=48 / lookahead_threads=5 / sliced_threads=0 / nr=0 / decimate=0 / interlaced=0 / bluray_compat=0 / constrained_intra=0 / bframes=5 / b_pyramid=2 / b_adapt=2 / b_bias=0 / direct=3 / weightb=1 / open_gop=0 / weightp=2 / keyint=250 / keyint_min=23 / scenecut=40 / intra_refresh=0 / rc_lookahead=50 / rc=crf / mbtree=1 / crf=16.0 / qcomp=0.60 / qpmin=0 / qpmax=69 / qpstep=4 / ip_ratio=1.40 / aq=1:0.60
  26. Default                                  : Yes
  27. Forced                                   : No

  28. Audio #1
  29. ID                                       : 2
  30. Format                                   : MLP FBA 16-ch
  31. Format/Info                              : Meridian Lossless Packing FBA with 16-channel presentation
  32. Commercial name                          : Dolby TrueHD with Dolby Atmos
  33. Codec ID                                 : A_TRUEHD
  34. Duration                                 : 1 h 41 min
  35. Bit rate mode                            : Variable
  36. Bit rate                                 : 4 598 kb/s
  37. Maximum bit rate                         : 5 742 kb/s
  38. Channel(s)                               : 8 channels
  39. Channel layout                           : L R C LFE Ls Rs Lb Rb
  40. Sampling rate                            : 48.0 kHz
  41. Frame rate                               : 1 200.000 FPS (40 SPF)
  42. Compression mode                         : Lossless
  43. Stream size                              : 3.25 GiB (23%)
  44. Title                                    : Wreck-It.Ralph.2012.2160p.BluRay.x264.8bit.SDR.TrueHD.7.1.Atmos-SWTYBLZ
  45. Language                                 : English
  46. Default                                  : Yes
  47. Forced                                   : No
  48. Number of dynamic objects                : 13
  49. Bed channel count                        : 1 channel
  50. Bed channel configuration                : LFE

  51. Audio #2
  52. ID                                       : 3
  53. Format                                   : AC-3
  54. Format/Info                              : Audio Coding 3
  55. Commercial name                          : Dolby Digital
  56. Codec ID                                 : A_AC3
  57. Duration                                 : 1 h 41 min
  58. Bit rate mode                            : Constant
  59. Bit rate                                 : 640 kb/s
  60. Channel(s)                               : 6 channels
  61. Channel layout                           : L R C LFE Ls Rs
  62. Sampling rate                            : 48.0 kHz
  63. Frame rate                               : 31.250 FPS (1536 SPF)
  64. Bit depth                                : 16 bits
  65. Compression mode                         : Lossy
  66. Stream size                              : 463 MiB (3%)
  67. Title                                    : Wreck-It.Ralph.2012.2160p.BluRay.x264.8bit.SDR.TrueHD.7.1.Atmos-SWTYBLZ
  68. Language                                 : English
  69. Service kind                             : Complete Main
  70. Default                                  : No
  71. Forced                                   : No

  72. Text #1
  73. ID                                       : 4
  74. Format                                   : UTF-8
  75. Codec ID                                 : S_TEXT/UTF8
  76. Codec ID/Info                            : UTF-8 Plain Text
  77. Duration                                 : 1 h 40 min
  78. Bit rate                                 : 68 b/s
  79. Count of elements                        : 1646
  80. Stream size                              : 50.3 KiB (0%)
  81. Title                                    : English-SRT
  82. Language                                 : English
  83. Default                                  : Yes
  84. Forced                                   : No

  85. Text #2
  86. ID                                       : 5
  87. Format                                   : UTF-8
  88. Codec ID                                 : S_TEXT/UTF8
  89. Codec ID/Info                            : UTF-8 Plain Text
  90. Duration                                 : 1 h 32 min
  91. Bit rate                                 : 67 b/s
  92. Count of elements                        : 1494
  93. Stream size                              : 45.6 KiB (0%)
  94. Title                                    : English-SDH-SRT
  95. Language                                 : English
  96. Default                                  : No
  97. Forced                                   : No

  98. Text #3
  99. ID                                       : 6
  100. Format                                   : PGS
  101. Muxing mode                              : zlib
  102. Codec ID                                 : S_HDMV/PGS
  103. Codec ID/Info                            : Picture based subtitle format used on BDs/HD-DVDs
  104. Duration                                 : 1 h 40 min
  105. Bit rate                                 : 47.5 kb/s
  106. Count of elements                        : 3748
  107. Stream size                              : 34.0 MiB (0%)
  108. Title                                    : English-PGS
  109. Language                                 : English
  110. Default                                  : No
  111. Forced                                   : No

  112. Text #4
  113. ID                                       : 7
  114. Format                                   : PGS
  115. Muxing mode                              : zlib
  116. Codec ID                                 : S_HDMV/PGS
  117. Codec ID/Info                            : Picture based subtitle format used on BDs/HD-DVDs
  118. Duration                                 : 1 h 32 min
  119. Bit rate                                 : 41.8 kb/s
  120. Count of elements                        : 2989
  121. Stream size                              : 27.6 MiB (0%)
  122. Title                                    : English-SDH-PGS
  123. Language                                 : English
  124. Default                                  : No
  125. Forced                                   : No

  126. Text #5
  127. ID                                       : 8
  128. Format                                   : PGS
  129. Muxing mode                              : zlib
  130. Codec ID                                 : S_HDMV/PGS
  131. Codec ID/Info                            : Picture based subtitle format used on BDs/HD-DVDs
  132. Duration                                 : 1 h 34 min
  133. Bit rate                                 : 42.9 kb/s
  134. Count of elements                        : 3107
  135. Stream size                              : 28.9 MiB (0%)
  136. Title                                    : French-PGS
  137. Language                                 : French
  138. Default                                  : No
  139. Forced                                   : No

  140. Text #6
  141. ID                                       : 9
  142. Format                                   : PGS
  143. Muxing mode                              : zlib
  144. Codec ID                                 : S_HDMV/PGS
  145. Codec ID/Info                            : Picture based subtitle format used on BDs/HD-DVDs
  146. Duration                                 : 1 h 34 min
  147. Bit rate                                 : 39.2 kb/s
  148. Count of elements                        : 2657
  149. Stream size                              : 26.4 MiB (0%)
  150. Title                                    : Spanish-PGS
  151. Language                                 : Spanish
  152. Default                                  : No
  153. Forced                                   : No

  154. Text #7
  155. ID                                       : 10
  156. Format                                   : PGS
  157. Muxing mode                              : zlib
  158. Codec ID                                 : S_HDMV/PGS
  159. Codec ID/Info                            : Picture based subtitle format used on BDs/HD-DVDs
  160. Duration                                 : 1 h 32 min
  161. Bit rate                                 : 33.3 kb/s
  162. Count of elements                        : 2757
  163. Stream size                              : 22.0 MiB (0%)
  164. Title                                    : Japanese-PGS
  165. Language                                 : Japanese
  166. Default                                  : No
  167. Forced                                   : No

  168. Text #8
  169. ID                                       : 11
  170. Format                                   : PGS
  171. Muxing mode                              : zlib
  172. Codec ID                                 : S_HDMV/PGS
  173. Codec ID/Info                            : Picture based subtitle format used on BDs/HD-DVDs
  174. Duration                                 : 1 h 34 min
  175. Bit rate                                 : 22.0 kb/s
  176. Count of elements                        : 2716
  177. Stream size                              : 14.8 MiB (0%)
  178. Title                                    : Korean-PGS
  179. Language                                 : Korean
  180. Default                                  : No
  181. Forced                                   : No

  182. Text #9
  183. ID                                       : 12
  184. Format                                   : PGS
  185. Muxing mode                              : zlib
  186. Codec ID                                 : S_HDMV/PGS
  187. Codec ID/Info                            : Picture based subtitle format used on BDs/HD-DVDs
  188. Duration                                 : 1 h 32 min
  189. Bit rate                                 : 28.7 kb/s
  190. Count of elements                        : 3212
  191. Stream size                              : 19.0 MiB (0%)
  192. Title                                    : Chinese-PGS
  193. Language                                 : Chinese
  194. Default                                  : No
  195. Forced                                   : No

  196. Text #10
  197. ID                                       : 13
  198. Format                                   : PGS
  199. Muxing mode                              : zlib
  200. Codec ID                                 : S_HDMV/PGS
  201. Codec ID/Info                            : Picture based subtitle format used on BDs/HD-DVDs
  202. Duration                                 : 1 h 32 min
  203. Bit rate                                 : 33.1 kb/s
  204. Count of elements                        : 3799
  205. Stream size                              : 21.9 MiB (0%)
  206. Title                                    : Chinese-PGS
  207. Language                                 : Chinese
  208. Default                                  : No
  209. Forced                                   : No

  210. Text #11
  211. ID                                       : 14
  212. Format                                   : PGS
  213. Muxing mode                              : zlib
  214. Codec ID                                 : S_HDMV/PGS
  215. Codec ID/Info                            : Picture based subtitle format used on BDs/HD-DVDs
  216. Duration                                 : 1 h 34 min
  217. Bit rate                                 : 1 021 b/s
  218. Count of elements                        : 120
  219. Stream size                              : 705 KiB (0%)
  220. Title                                    : French-PGS
  221. Language                                 : French
  222. Default                                  : No
  223. Forced                                   : No

  224. Text #12
  225. ID                                       : 15
  226. Format                                   : PGS
  227. Muxing mode                              : zlib
  228. Codec ID                                 : S_HDMV/PGS
  229. Codec ID/Info                            : Picture based subtitle format used on BDs/HD-DVDs
  230. Duration                                 : 1 h 34 min
  231. Bit rate                                 : 765 b/s
  232. Count of elements                        : 100
  233. Stream size                              : 528 KiB (0%)
  234. Title                                    : Spanish-PGS
  235. Language                                 : Spanish
  236. Default                                  : No
  237. Forced                                   : No

  238. Text #13
  239. ID                                       : 16
  240. Format                                   : PGS
  241. Muxing mode                              : zlib
  242. Codec ID                                 : S_HDMV/PGS
  243. Codec ID/Info                            : Picture based subtitle format used on BDs/HD-DVDs
  244. Duration                                 : 1 h 40 min
  245. Bit rate                                 : 137 b/s
  246. Count of elements                        : 54
  247. Stream size                              : 101 KiB (0%)
  248. Title                                    : Japanese-PGS
  249. Language                                 : Japanese
  250. Default                                  : No
  251. Forced                                   : No

  252. Text #14
  253. ID                                       : 17
  254. Format                                   : PGS
  255. Muxing mode                              : zlib
  256. Codec ID                                 : S_HDMV/PGS
  257. Codec ID/Info                            : Picture based subtitle format used on BDs/HD-DVDs
  258. Duration                                 : 1 h 34 min
  259. Bit rate                                 : 728 b/s
  260. Count of elements                        : 150
  261. Stream size                              : 503 KiB (0%)
  262. Title                                    : Korean-PGS
  263. Language                                 : Korean
  264. Default                                  : No
  265. Forced                                   : No

  266. Text #15
  267. ID                                       : 18
  268. Format                                   : PGS
  269. Muxing mode                              : zlib
  270. Codec ID                                 : S_HDMV/PGS
  271. Codec ID/Info                            : Picture based subtitle format used on BDs/HD-DVDs
  272. Duration                                 : 1 h 32 min
  273. Bit rate                                 : 1 080 b/s
  274. Count of elements                        : 145
  275. Stream size                              : 732 KiB (0%)
  276. Title                                    : Chinese-PGS
  277. Language                                 : Chinese
  278. Default                                  : No
  279. Forced                                   : No

  280. Menu
  281. 00:00:00.000                             : :Chapter 1
  282. 00:07:12.974                             : :Chapter 2
  283. 00:16:35.744                             : :Chapter 3
  284. 00:27:08.334                             : :Chapter 4
  285. 00:37:26.786                             : :Chapter 5
  286. 00:44:47.517                             : :Chapter 6
  287. 00:48:45.964                             : :Chapter 7
  288. 00:51:36.843                             : :Chapter 8
  289. 00:58:56.866                             : :Chapter 9
  290. 01:09:08.727                             : :Chapter 10
  291. 01:13:40.457                             : :Chapter 11
  292. 01:15:57.635                             : :Chapter 12
  293. 01:18:53.811                             : :Chapter 13
  294. 01:21:54.575                             : :Chapter 14
  295. 01:27:26.198                             : :Chapter 15
  296. 01:33:11.376                             : :Chapter 16
复制代码

复制代码

无敌破坏王/破坏王拉尔夫 Wreck-It.Ralph.2012.2160p.BluRay.x264.8bit.SDR.TrueHD.7.1.Atmos-SWTYBLZ 14.03GB-2.png 无敌破坏王/破坏王拉尔夫 Wreck-It.Ralph.2012.2160p.BluRay.x264.8bit.SDR.TrueHD.7.1.Atmos-SWTYBLZ 14.03GB-3.png 无敌破坏王/破坏王拉尔夫 Wreck-It.Ralph.2012.2160p.BluRay.x264.8bit.SDR.TrueHD.7.1.Atmos-SWTYBLZ 14.03GB-4.png 无敌破坏王/破坏王拉尔夫 Wreck-It.Ralph.2012.2160p.BluRay.x264.8bit.SDR.TrueHD.7.1.Atmos-SWTYBLZ 14.03GB-5.png 无敌破坏王/破坏王拉尔夫 Wreck-It.Ralph.2012.2160p.BluRay.x264.8bit.SDR.TrueHD.7.1.Atmos-SWTYBLZ 14.03GB-6.png 无敌破坏王/破坏王拉尔夫 Wreck-It.Ralph.2012.2160p.BluRay.x264.8bit.SDR.TrueHD.7.1.Atmos-SWTYBLZ 14.03GB-7.png





本帖隐藏的下载地址需要VIP会员才可阅读,您需要升级才可阅读,点击这里升级VIP

回复

使用道具 举报

级别:初级观众 Lv.1

注册时间
2018-11-21
最后登录
2018-12-28
听众
1
收听
0
主题
0
蓝光币
12 枚
贡献
0 点
发表于 2018-11-21 15:51:39 | 显示全部楼层
thank you for sharing
回复

使用道具 举报

懒得打字嘛,点击右侧快捷回复 【右侧内容,后台自定义】
您需要登录后才可以回帖 登录 | 立即注册

本版积分规则

QQ|Archiver|手机版|小黑屋|中国高清网  |网站地图

GMT+8, 2019-4-23 18:36 , Processed in 0.242935 second(s), 41 queries .

Powered by HDchina X3.4

Copyright 2017-2018©HDchina.All right reserved

返回顶部 联系我们