你所知道的4K资源这里全部都有 4K电影 | 4K视频 | 4K壁纸 | 4K MV 怎么播放4K视频 | 4K电视演示片

教你玩转4K私人与家庭影院存储 NAS组装 | 黑群辉 家庭/影院Nas论坛

4K家庭影院信号源与视频设备知识 4K蓝光高清播放机 - 那个品牌好? 4K投影机论坛 | 4K电视机论坛

手把手教你搭建属于自己的家庭影院 4K家庭影院案例 | 家庭影院音频 4K家庭影院论坛

查看: 129|回复: 6

[REMUX.HEVC] 神探夏洛克 第一季/新世纪福尔摩斯 Sherlock.S01.2160p.BluRay.REMUX.HEVC.DTS-HD.MA.5.1-FGT 113.59GB

[复制链接]

 成长值: 120

级别:资源管理组

UID
1
注册时间
2017-10-20
最后登录
2019-1-21
听众
0
收听
0
主题
73918
蓝光币
116406 枚
贡献
143727 点
发表于 2018-11-9 09:41:50 | 显示全部楼层 |阅读模式
神探夏洛克 第一季/新世纪福尔摩斯 Sherlock.S01.2160p.BluRay.REMUX.HEVC.DTS-HD.MA.5.1-FGT 113.59GB-1.jpg
◎译  名 神探夏洛克 第一季 / 新世纪福尔摩斯(港) / 新福尔摩斯(港) / 福尔摩斯新传(港) / 新编夏洛克 第一季 / 当夏洛克碰见华生 / 歇洛克
◎片  名 神探夏洛克 第一季 Sherlock Season 1
◎年  代 2010
◎国  家 英国
◎类  别 剧情 / 悬疑 / 犯罪
◎语  言 英语
◎上映日期 无尚映时候
◎IMDb评分  9.2/10 from 667,009 users
◎IMDb链接  http://www.imdb.com/title/tt1475582/
◎豆瓣评分 9.3/10 from 254003 users
◎豆瓣链接 https://movie.douban.com/subject/3986493/
◎片  长 90分钟
◎导  演 保罗·麦奎根 / 尤洛斯·林
◎主  演 本尼迪克特·康伯巴奇
      马丁·弗瑞曼
      鲁珀特·格雷夫斯
      安德鲁·斯科特
      马克·加蒂斯
      尤娜·斯塔布斯
      露易丝·布瑞丽
      菲尔·戴维斯

◎简  介 

  《神探夏洛克》是一部由BBC出品的英国迷你电视剧,该剧将原著的故事布景从19世纪大英帝国国势壮盛的期间搬到了21世纪富贵热烈的大都会中。
  这一次夏洛克·福尔摩斯(本尼迪克特·康伯巴奇 Benedict Cumberbatch 饰)不可是著名大侦察更是一位时髦潮人。和他的 好友兼得力助手约翰·华生(马丁·弗瑞曼 Martin Freeman 饰)别离履历了古怪市民自杀案件、黑帮走私事务和倒计时炸弹杀人案。每一个案件看似自力实在都有联系,两人每处理一个案子,就又会出现新的困难和的受害无辜百姓。经过抽丝剥茧,幕后黑手莫里亚蒂(安德鲁·斯科特 Andrew Scott 饰)终究浮出水面,最初一集的交锋中,被炸弹和狙击枪威胁的夏洛克和华生该若何脱身,只能等到第二季让BBC来告诉大师了。


  1. Video
  2. ID                                       : 1
  3. Format                                   : HEVC
  4. Format/Info                              : High Efficiency Video Coding
  5. Commercial name                          : HDR10
  6. Format profile                           : Main [url=/cdn-cgi/l/email-protection][email protected][/url]@High
  7. Codec ID                                 : V_MPEGH/ISO/HEVC
  8. Duration                                 : 1 h 33 min
  9. Bit rate                                 : 55.2 Mb/s
  10. Width                                    : 3 840 pixels
  11. Height                                   : 2 160 pixels
  12. Display aspect ratio                     : 16:9
  13. Frame rate mode                          : Constant
  14. Frame rate                               : 23.976 (24000/1001) FPS
  15. Color space                              : YUV
  16. Chroma subsampling                       : 4:2:0 (Type 2)
  17. Bit depth                                : 10 bits
  18. Bits/(Pixel*Frame)                       : 0.278
  19. Stream size                              : 35.9 GiB (93%)
  20. Title                                    : Sherlock.S01E03.The.Great.Game.2160p.BluRay.REMUX.HEVC.DTS-HD.MA.5.1-FGT
  21. Default                                  : Yes
  22. Forced                                   : No
  23. Color range                              : Limited
  24. Color primaries                          : BT.2020
  25. Transfer characteristics                 : PQ
  26. Matrix coefficients                      : BT.2020 non-constant
  27. Mastering display color primaries        : Display P3
  28. Mastering display luminance              : min: 0.0050 cd/m2, max: 4000 cd/m2
  29. Maximum Content Light Level              : 10000 cd/m2
  30. Maximum Frame-Average Light Level        : 1035 cd/m2

  31. Audio #1
  32. ID                                       : 2
  33. Format                                   : DTS XLL
  34. Format/Info                              : Digital Theater Systems
  35. Commercial name                          : DTS-HD Master Audio
  36. Codec ID                                 : A_DTS
  37. Duration                                 : 1 h 33 min
  38. Bit rate mode                            : Variable
  39. Bit rate                                 : 2 315 kb/s
  40. Channel(s)                               : 6 channels
  41. Channel layout                           : C L R Ls Rs LFE
  42. Sampling rate                            : 48.0 kHz
  43. Frame rate                               : 93.750 FPS (512 SPF)
  44. Bit depth                                : 16 bits
  45. Compression mode                         : Lossless
  46. Stream size                              : 1.51 GiB (4%)
  47. Title                                    : Sherlock.S01E03.The.Great.Game.2160p.BluRay.REMUX.HEVC.DTS-HD.MA.5.1-FGT
  48. Language                                 : English
  49. Default                                  : Yes
  50. Forced                                   : No

  51. Audio #2
  52. ID                                       : 3
  53. Format                                   : DTS XLL
  54. Format/Info                              : Digital Theater Systems
  55. Commercial name                          : DTS-HD Master Audio
  56. Codec ID                                 : A_DTS
  57. Duration                                 : 1 h 33 min
  58. Bit rate mode                            : Variable
  59. Bit rate                                 : 1 714 kb/s
  60. Channel(s)                               : 2 channels
  61. Channel layout                           : L R
  62. Sampling rate                            : 48.0 kHz
  63. Frame rate                               : 93.750 FPS (512 SPF)
  64. Bit depth                                : 16 bits
  65. Compression mode                         : Lossless
  66. Stream size                              : 1.11 GiB (3%)
  67. Title                                    : Sherlock.S01E03.The.Great.Game.2160p.BluRay.REMUX.HEVC.DTS-HD.MA.5.1-FGT
  68. Language                                 : English
  69. Default                                  : No
  70. Forced                                   : No

  71. Text
  72. ID                                       : 4
  73. Format                                   : PGS
  74. Muxing mode                              : zlib
  75. Codec ID                                 : S_HDMV/PGS
  76. Codec ID/Info                            : Picture based subtitle format used on BDs/HD-DVDs
  77. Duration                                 : 1 h 32 min
  78. Bit rate                                 : 49.0 kb/s
  79. Count of elements                        : 3184
  80. Stream size                              : 32.4 MiB (0%)
  81. Language                                 : English
  82. Default                                  : Yes
  83. Forced                                   : No

  84. Menu
  85. 00:00:00.000                             : :Chapter 1
  86. 00:11:25.685                             : :Chapter 2
  87. 00:23:21.191                             : :Chapter 3
  88. 00:35:51.190                             : :Chapter 4
  89. 00:48:38.165                             : :Chapter 5
  90. 01:00:17.030                             : :Chapter 6
  91. 01:10:44.240                             : :Chapter 7
  92. 01:23:11.736                             : :Chapter 8
复制代码

复制代码

神探夏洛克 第一季/新世纪福尔摩斯 Sherlock.S01.2160p.BluRay.REMUX.HEVC.DTS-HD.MA.5.1-FGT 113.59GB-2.png 神探夏洛克 第一季/新世纪福尔摩斯 Sherlock.S01.2160p.BluRay.REMUX.HEVC.DTS-HD.MA.5.1-FGT 113.59GB-3.png 神探夏洛克 第一季/新世纪福尔摩斯 Sherlock.S01.2160p.BluRay.REMUX.HEVC.DTS-HD.MA.5.1-FGT 113.59GB-4.png





本帖隐藏的下载地址需要VIP会员才可阅读,您需要升级才可阅读,点击这里升级VIP

回复

使用道具 举报

级别:普通观众 Lv.2

UID
4470
注册时间
2018-6-13
最后登录
2018-12-7
听众
1
收听
0
主题
0
蓝光币
5 枚
贡献
0 点
QQ
发表于 2018-11-17 11:11:54 | 显示全部楼层
楼主发贴辛苦了,谢谢楼主分享!
回复

使用道具 举报

级别:专业龙套 Lv.4

UID
9231
注册时间
2018-10-31
最后登录
2019-1-22
听众
0
收听
0
主题
0
蓝光币
666 枚
贡献
0 点
QQ
发表于 2018-11-25 20:02:49 | 显示全部楼层
我看不错噢 谢谢楼主!
回复

使用道具 举报

 成长值: 180

级别:尊贵的会员

UID
12614
注册时间
2018-12-22
最后登录
2019-1-19
听众
0
收听
0
主题
0
蓝光币
5 枚
贡献
0 点
QQ
发表于 2018-12-24 03:43:11 | 显示全部楼层

这个帖子不回对不起自己!我想我是一天也不能离开中国高清电影网
回复

使用道具 举报

级别:专业龙套 Lv.4

UID
8875
注册时间
2018-10-24
最后登录
2019-1-21
听众
3
收听
0
主题
0
蓝光币
472 枚
贡献
0 点
QQ
发表于 2018-12-24 10:37:50 | 显示全部楼层

这个帖子不回对不起自己!我想我是一天也不能离开中国高清电影网
回复

使用道具 举报

级别:初级观众 Lv.1

UID
14657
注册时间
2019-1-15
最后登录
2019-1-16
听众
0
收听
0
主题
0
蓝光币
7 枚
贡献
0 点
发表于 7 天前 | 显示全部楼层
非常感谢楼主分享,辛苦了。
回复

使用道具 举报

级别:普通观众 Lv.2

UID
14807
注册时间
2019-1-16
最后登录
2019-1-21
听众
0
收听
0
主题
0
蓝光币
0 枚
贡献
0 点
QQ
发表于 5 天前 | 显示全部楼层
谢谢分享
回复

使用道具 举报

懒得打字嘛,点击右侧快捷回复 【右侧内容,后台自定义】
您需要登录后才可以回帖 登录 | 立即注册

本版积分规则

QQ|Archiver|手机版|小黑屋|中国高清网 |网站地图

GMT+8, 2019-1-22 07:41 , Processed in 0.147367 second(s), 41 queries .

Powered by HDchina X3.4

Copyright 2017-2018©HDchina.All right reserved

返回顶部 联系我们