你所知道的4K资源这里全部都有 4K电影 | 4K视频 | 4K壁纸 | 4K MV 怎么播放4K视频 | 4K电视演示片

教你玩转4K私人与家庭影院存储 NAS组装 | 黑群辉 家庭/影院Nas论坛

4K家庭影院信号源与视频设备知识 4K蓝光高清播放机 - 那个品牌好? 4K投影机论坛 | 4K电视机论坛

手把手教你搭建属于自己的家庭影院 4K家庭影院案例 | 家庭影院音频 4K家庭影院论坛

查看: 121|回复: 2

[恐怖片] 暴君尼禄荒淫史2 Porno.Holocaust.1981.DUBBED.1080p.BluRay.x264-CREEPSHOW 12.02GB

[复制链接]

级别:资源管理组

UID
1
注册时间
2017-10-20
最后登录
2018-11-21
听众
0
收听
0
主题
72220
蓝光币
99015 枚
贡献
142028 点
发表于 2018-11-9 09:31:32 | 显示全部楼层 |阅读模式

暴君尼禄荒淫史2 Porno.Holocaust.1981.DUBBED.1080p.BluRay.x264-CREEPSHOW 12.02GB-1.jpg
◎译  名 暴君尼禄荒淫史2 / Orgasmo nero II - Insel der Zombies
◎片  名 暴君尼禄荒淫史2 Porno Holocaust
◎年  代 1981
◎国  家 意大利
◎类  别 可骇 / 情色
◎语  言 意大利语
◎上映日期 1981
◎IMDb评分  3.2/10 from 1,030 users
◎IMDb链接  http://www.imdb.com/title/tt0235686/
◎豆瓣评分 今朝无人评价
◎豆瓣链接 https://movie.douban.com/subject/2253525/
◎片  长 113分钟
◎导  演 Joe D'Amato
◎主  演 George Eastman

◎简  介 

  A group of castaways wash ashore on a deserted island in this Italian sex/gore movie. They are unaware that a sex-crazed radioactive monster is also on the island. He attacks and rapes several of the women, who die horrible deaths because his sperm is radioactive. The survivors must find a way to either escape the island or kill the monster.

  • Video
  • ID                                       : 1
  • Format                                   : AVC
  • Format/Info                              : Advanced Video Codec
  • Format profile                           : [email protected]
  • Format settings                          : CABAC / 4 Ref Frames
  • Format settings, CABAC                   : Yes
  • Format settings, ReFrames                : 4 frames
  • Codec ID                                 : V_MPEG4/ISO/AVC
  • Duration                                 : 1 h 53 min
  • Bit rate                                 : 13.6 Mb/s
  • Width                                    : 1 808 pixels
  • Height                                   : 1 080 pixels
  • Display aspect ratio                     : 5:3
  • Frame rate mode                          : Constant
  • Frame rate                               : 23.976 (24000/1001) FPS
  • Color space                              : YUV
  • Chroma subsampling                       : 4:2:0
  • Bit depth                                : 8 bits
  • Scan type                                : Progressive
  • Bits/(Pixel*Frame)                       : 0.290
  • Stream size                              : 10.8 GiB (90%)
  • Writing library                          : x264 core 157 r2935 545de2f
  • Encoding settings                        : cabac=1 / ref=4 / deblock=1:-2:-2 / analyse=0x3:0x133 / me=umh / subme=9 / psy=1 / psy_rd=1.00:0.00 / mixed_ref=1 / me_range=16 / chroma_me=1 / trellis=2 / 8x8dct=1 / cqm=0 / deadzone=21,11 / fast_pskip=0 / chroma_qp_offset=-2 / threads=12 / lookahead_threads=1 / sliced_threads=0 / nr=0 / decimate=1 / interlaced=0 / bluray_compat=0 / constrained_intra=0 / bframes=3 / b_pyramid=2 / b_adapt=2 / b_bias=0 / direct=3 / weightb=1 / open_gop=0 / weightp=2 / keyint=240 / keyint_min=23 / scenecut=40 / intra_refresh=0 / rc_lookahead=50 / rc=2pass / mbtree=1 / bitrate=13590 / ratetol=1.0 / qcomp=0.60 / qpmin=0 / qpmax=69 / qpstep=4 / cplxblur=20.0 / qblur=0.5 / vbv_maxrate=62500 / vbv_bufsize=78125 / nal_hrd=none / filler=0 / ip_ratio=1.40 / aq=1:0.70
  • Default                                  : Yes
  • Forced                                   : No
  • Audio
  • ID                                       : 2
  • Format                                   : DTS
  • Format/Info                              : Digital Theater Systems
  • Codec ID                                 : A_DTS
  • Duration                                 : 1 h 53 min
  • Bit rate mode                            : Constant
  • Bit rate                                 : 1 509 kb/s
  • Channel(s)                               : 2 channels
  • Channel layout                           : L R
  • Sampling rate                            : 48.0 kHz
  • Frame rate                               : 93.750 FPS (512 SPF)
  • Bit depth                                : 24 bits
  • Compression mode                         : Lossy
  • Stream size                              : 1.20 GiB (10%)
  • Language                                 : English
  • Default                                  : Yes
  • Forced                                   : No
  • Text
  • ID                                       : 3
  • Format                                   : UTF-8
  • Codec ID                                 : S_TEXT/UTF8
  • Codec ID/Info                            : UTF-8 Plain Text
  • Duration                                 : 1 h 50 min
  • Bit rate                                 : 26 b/s
  • Count of elements                        : 544
  • Stream size                              : 21.5 KiB (0%)
  • Language                                 : English
  • Default                                  : No
  • Forced                                   : No
  • Menu
  • 00:00:00.000                             : en:00:00:00.000
  • 00:09:05.920                             : en:00:09:05.920
  • 00:20:33.649                             : en:00:20:33.649
  • 00:28:44.973                             : en:00:28:44.973
  • 00:39:10.849                             : en:00:39:10.849
  • 00:49:52.907                             : en:00:49:52.907
  • 00:59:00.370                             : en:00:59:00.370
  • 01:07:08.107                             : en:01:07:08.107
  • 01:15:20.266                             : en:01:15:20.266
  • 01:26:34.022                             : en:01:26:34.022
  • 01:37:54.285                             : en:01:37:54.285
  • 01:44:49.492                             : en:01:44:49.492
  • 01:52:22.736                             : en:01:52:22.736

复制代码

暴君尼禄荒淫史2 Porno.Holocaust.1981.DUBBED.1080p.BluRay.x264-CREEPSHOW 12.02GB-2.jpg






回复

使用道具 举报

级别:初级观众 Lv.1

UID
9808
注册时间
2018-11-10
最后登录
2018-11-10
听众
0
收听
0
主题
0
蓝光币
2 枚
贡献
0 点
发表于 2018-11-10 20:50:09 | 显示全部楼层
自然清新不做作
回复

使用道具 举报

级别:初级观众 Lv.1

UID
10292
注册时间
2018-11-17
最后登录
2018-11-17
听众
0
收听
0
主题
0
蓝光币
5 枚
贡献
0 点
发表于 4 天前 | 显示全部楼层
谢谢分享啊。
回复

使用道具 举报

您需要登录后才可以回帖 登录 | 立即注册

本版积分规则

QQ|Archiver|手机版|小黑屋|中国高清网  |网站地图

GMT+8, 2018-11-21 21:35 , Processed in 0.140890 second(s), 41 queries .

Powered by HDchina X3.4

Copyright 2017-2018©HDchina.All right reserved

返回顶部 联系我们