你所知道的4K资源这里全部都有 4K电影 | 4K视频 | 4K壁纸 | 4K MV 怎么播放4K视频 | 4K电视演示片

教你玩转4K私人与家庭影院存储 NAS组装 | 黑群辉 家庭/影院Nas论坛

4K家庭影院信号源与视频设备知识 4K蓝光高清播放机 - 那个品牌好? 4K投影机论坛 | 4K电视机论坛

手把手教你搭建属于自己的家庭影院 4K家庭影院案例 | 家庭影院音频 4K家庭影院论坛

查看: 427|回复: 4

[恐怖片] 暴君尼禄荒淫史2 Porno.Holocaust.1981.DUBBED.1080p.BluRay.x264-CREEPSHOW 12.02GB

[复制链接]

 成长值: 120

级别:资源管理组

UID
1
注册时间
2017-10-20
最后登录
2019-1-21
听众
0
收听
0
主题
73918
蓝光币
116406 枚
贡献
143727 点
发表于 2018-11-9 09:31:32 | 显示全部楼层 |阅读模式

暴君尼禄荒淫史2 Porno.Holocaust.1981.DUBBED.1080p.BluRay.x264-CREEPSHOW 12.02GB-1.jpg
◎译  名 暴君尼禄荒淫史2 / Orgasmo nero II - Insel der Zombies
◎片  名 暴君尼禄荒淫史2 Porno Holocaust
◎年  代 1981
◎国  家 意大利
◎类  别 可骇 / 情色
◎语  言 意大利语
◎上映日期 1981
◎IMDb评分  3.2/10 from 1,030 users
◎IMDb链接  http://www.imdb.com/title/tt0235686/
◎豆瓣评分 今朝无人评价
◎豆瓣链接 https://movie.douban.com/subject/2253525/
◎片  长 113分钟
◎导  演 Joe D'Amato
◎主  演 George Eastman

◎简  介 

  A group of castaways wash ashore on a deserted island in this Italian sex/gore movie. They are unaware that a sex-crazed radioactive monster is also on the island. He attacks and rapes several of the women, who die horrible deaths because his sperm is radioactive. The survivors must find a way to either escape the island or kill the monster.


  1. Video
  2. ID                                       : 1
  3. Format                                   : AVC
  4. Format/Info                              : Advanced Video Codec
  5. Format profile                           : [url=/cdn-cgi/l/email-protection][email protected][/url]
  6. Format settings                          : CABAC / 4 Ref Frames
  7. Format settings, CABAC                   : Yes
  8. Format settings, ReFrames                : 4 frames
  9. Codec ID                                 : V_MPEG4/ISO/AVC
  10. Duration                                 : 1 h 53 min
  11. Bit rate                                 : 13.6 Mb/s
  12. Width                                    : 1 808 pixels
  13. Height                                   : 1 080 pixels
  14. Display aspect ratio                     : 5:3
  15. Frame rate mode                          : Constant
  16. Frame rate                               : 23.976 (24000/1001) FPS
  17. Color space                              : YUV
  18. Chroma subsampling                       : 4:2:0
  19. Bit depth                                : 8 bits
  20. Scan type                                : Progressive
  21. Bits/(Pixel*Frame)                       : 0.290
  22. Stream size                              : 10.8 GiB (90%)
  23. Writing library                          : x264 core 157 r2935 545de2f
  24. Encoding settings                        : cabac=1 / ref=4 / deblock=1:-2:-2 / analyse=0x3:0x133 / me=umh / subme=9 / psy=1 / psy_rd=1.00:0.00 / mixed_ref=1 / me_range=16 / chroma_me=1 / trellis=2 / 8x8dct=1 / cqm=0 / deadzone=21,11 / fast_pskip=0 / chroma_qp_offset=-2 / threads=12 / lookahead_threads=1 / sliced_threads=0 / nr=0 / decimate=1 / interlaced=0 / bluray_compat=0 / constrained_intra=0 / bframes=3 / b_pyramid=2 / b_adapt=2 / b_bias=0 / direct=3 / weightb=1 / open_gop=0 / weightp=2 / keyint=240 / keyint_min=23 / scenecut=40 / intra_refresh=0 / rc_lookahead=50 / rc=2pass / mbtree=1 / bitrate=13590 / ratetol=1.0 / qcomp=0.60 / qpmin=0 / qpmax=69 / qpstep=4 / cplxblur=20.0 / qblur=0.5 / vbv_maxrate=62500 / vbv_bufsize=78125 / nal_hrd=none / filler=0 / ip_ratio=1.40 / aq=1:0.70
  25. Default                                  : Yes
  26. Forced                                   : No

  27. Audio
  28. ID                                       : 2
  29. Format                                   : DTS
  30. Format/Info                              : Digital Theater Systems
  31. Codec ID                                 : A_DTS
  32. Duration                                 : 1 h 53 min
  33. Bit rate mode                            : Constant
  34. Bit rate                                 : 1 509 kb/s
  35. Channel(s)                               : 2 channels
  36. Channel layout                           : L R
  37. Sampling rate                            : 48.0 kHz
  38. Frame rate                               : 93.750 FPS (512 SPF)
  39. Bit depth                                : 24 bits
  40. Compression mode                         : Lossy
  41. Stream size                              : 1.20 GiB (10%)
  42. Language                                 : English
  43. Default                                  : Yes
  44. Forced                                   : No

  45. Text
  46. ID                                       : 3
  47. Format                                   : UTF-8
  48. Codec ID                                 : S_TEXT/UTF8
  49. Codec ID/Info                            : UTF-8 Plain Text
  50. Duration                                 : 1 h 50 min
  51. Bit rate                                 : 26 b/s
  52. Count of elements                        : 544
  53. Stream size                              : 21.5 KiB (0%)
  54. Language                                 : English
  55. Default                                  : No
  56. Forced                                   : No

  57. Menu
  58. 00:00:00.000                             : en:00:00:00.000
  59. 00:09:05.920                             : en:00:09:05.920
  60. 00:20:33.649                             : en:00:20:33.649
  61. 00:28:44.973                             : en:00:28:44.973
  62. 00:39:10.849                             : en:00:39:10.849
  63. 00:49:52.907                             : en:00:49:52.907
  64. 00:59:00.370                             : en:00:59:00.370
  65. 01:07:08.107                             : en:01:07:08.107
  66. 01:15:20.266                             : en:01:15:20.266
  67. 01:26:34.022                             : en:01:26:34.022
  68. 01:37:54.285                             : en:01:37:54.285
  69. 01:44:49.492                             : en:01:44:49.492
  70. 01:52:22.736                             : en:01:52:22.736
复制代码

复制代码

暴君尼禄荒淫史2 Porno.Holocaust.1981.DUBBED.1080p.BluRay.x264-CREEPSHOW 12.02GB-2.jpg






回复

使用道具 举报

级别:初级观众 Lv.1

UID
9808
注册时间
2018-11-10
最后登录
2018-11-10
听众
0
收听
0
主题
0
蓝光币
2 枚
贡献
0 点
发表于 2018-11-10 20:50:09 | 显示全部楼层
自然清新不做作
回复

使用道具 举报

级别:初级观众 Lv.1

UID
10292
注册时间
2018-11-17
最后登录
2018-11-17
听众
0
收听
0
主题
0
蓝光币
5 枚
贡献
0 点
发表于 2018-11-17 16:23:33 | 显示全部楼层
谢谢分享啊。
回复

使用道具 举报

级别:群众演员 Lv.3

UID
10555
注册时间
2018-11-21
最后登录
2019-1-18
听众
0
收听
0
主题
0
蓝光币
110 枚
贡献
0 点
QQ
发表于 2018-12-4 22:22:51 | 显示全部楼层
楼主发贴辛苦了,谢谢楼主分享!我觉得中国高清电影网是注册对了!
回复

使用道具 举报

级别:荣升主角 Lv.5

UID
12331
注册时间
2018-12-18
最后登录
2019-1-21
听众
0
收听
0
主题
0
蓝光币
0 枚
贡献
0 点
发表于 2018-12-19 10:58:11 | 显示全部楼层

楼主太厉害了!楼主,电影应该很好看我觉得中国高清电影网真是个好地方!
回复

使用道具 举报

懒得打字嘛,点击右侧快捷回复 【右侧内容,后台自定义】
您需要登录后才可以回帖 登录 | 立即注册

本版积分规则

QQ|Archiver|手机版|小黑屋|中国高清网 |网站地图

GMT+8, 2019-1-22 07:41 , Processed in 0.116109 second(s), 41 queries .

Powered by HDchina X3.4

Copyright 2017-2018©HDchina.All right reserved

返回顶部 联系我们