你所知道的4K资源这里全部都有 4K电影 | 4K视频 | 4K壁纸 | 4K MV 怎么播放4K视频 | 4K电视演示片

教你玩转4K私人与家庭影院存储 NAS组装 | 黑群辉 家庭/影院Nas论坛

4K家庭影院信号源与视频设备知识 4K蓝光高清播放机 - 那个品牌好? 4K投影机论坛 | 4K电视机论坛

手把手教你搭建属于自己的家庭影院 4K家庭影院案例 | 家庭影院音频 4K家庭影院论坛

查看: 381|回复: 5

[恐怖片] 暴君尼禄荒淫史2 Porno.Holocaust.1981.DUBBED.720p.BluRay.x264-CREEPSHOW 6.55GB

[复制链接]

 成长值: 120

级别:资源管理组

UID
1
注册时间
2017-10-20
最后登录
2019-1-22
听众
0
收听
0
主题
73918
蓝光币
116409 枚
贡献
143727 点
发表于 2018-11-9 09:25:21 | 显示全部楼层 |阅读模式
暴君尼禄荒淫史2 Porno.Holocaust.1981.DUBBED.720p.BluRay.x264-CREEPSHOW 6.55GB-1.jpg % j# }4 ?9 ^6 V( l- u! V: ^
◎译  名 暴君尼禄荒淫史2 / Orgasmo nero II - Insel der Zombies
' ~7 i7 `* r: T, @2 c1 t! N◎片  名 暴君尼禄荒淫史2 Porno Holocaust9 v: `0 V7 j+ n  x* h; y" W- [5 k
◎年  代 1981' f" C" u2 O: k
◎国  家 意大利) G# w; J, h/ U; a5 V" D
◎类  别 可骇 / 情色
) x; K9 ~, ~3 n1 k" |" u. R+ b◎语  言 意大利语
, d! h  T5 x- z* p◎上映日期 1981" R: u4 T& y5 W
◎IMDb评分  3.1/10 from 1,034 users
" n+ @6 R! V' r; D+ @◎IMDb链接  http://www.imdb.com/title/tt0235686/
6 p" {5 H1 ~. I4 i# Y8 ]◎豆瓣评分 今朝无人评价
% m" D( H& G6 H' f$ I! o◎豆瓣链接 https://movie.douban.com/subject/2253525/
, P3 L! ~8 G7 R9 g2 F" \5 {6 s$ ~◎片  长 113分钟
& Y* v2 [2 s2 j7 m" x5 D' B7 W◎导  演 Joe D'Amato
% J" ]- j* n$ B% N3 c◎主  演 George Eastman
" u1 }5 X0 K& l4 p4 q  D" n4 F( E. I$ L. |, O
◎简  介 , u" s3 Q* ?. Q: C7 m. B/ T4 e. B+ r
4 g* `6 X& X, R4 ~
  A group of castaways wash ashore on a deserted island in this Italian sex/gore movie. They are unaware that a sex-crazed radioactive monster is also on the island. He attacks and rapes several of the women, who die horrible deaths because his sperm is radioactive. The survivors must find a way to either escape the island or kill the monster.6 _4 y2 W, Z7 J( _1 W& r7 V

  b7 g. p! ]/ k: n  k# x
  1. # e: ^  M7 v1 e7 j. `  |$ V
  2. Video* b% o* M9 h4 l4 S
  3. ID                                       : 1: l' I: j2 _( g
  4. Format                                   : AVC
    # N, S$ C5 V1 i% J
  5. Format/Info                              : Advanced Video Codec
    1 `6 W7 O+ F" C4 K+ P4 T
  6. Format profile                           : [url=/cdn-cgi/l/email-protection][email protected][/url]9 C0 S3 @4 l  l8 C
  7. Format settings                          : CABAC / 5 Ref Frames
    % t' y2 {' Z0 B' p
  8. Format settings, CABAC                   : Yes
    1 U- r3 c* X$ x
  9. Format settings, ReFrames                : 5 frames3 a8 u3 m: i/ [5 P
  10. Codec ID                                 : V_MPEG4/ISO/AVC0 _- K5 j+ P9 \( w: e8 P( p
  11. Duration                                 : 1 h 53 min# j! a: d4 Z$ V2 y& H6 L2 j
  12. Bit rate                                 : 6 720 kb/s
    5 C; {8 R. w" g* u2 T$ b( n: C! Z
  13. Width                                    : 1 200 pixels* B& L1 ]& Z6 z/ K. h+ j
  14. Height                                   : 720 pixels' k" |. z1 B* r/ }9 g" l  |' @! w0 e8 _( {
  15. Display aspect ratio                     : 5:30 t: S" ]8 z5 u) \( m
  16. Frame rate mode                          : Constant6 X8 x9 \! h( n# w! R
  17. Frame rate                               : 23.976 (24000/1001) FPS0 a$ d- p4 Y6 h  t
  18. Color space                              : YUV2 A1 M& e( x2 \$ H- v  `+ Q
  19. Chroma subsampling                       : 4:2:0
    * }# E4 Y- b2 h, {, K7 n" p
  20. Bit depth                                : 8 bits
    # a+ }& x% n$ Y' M+ N) W  ?
  21. Scan type                                : Progressive
    ) W( |. u' \2 m* _9 f6 [* w7 ^
  22. Bits/(Pixel*Frame)                       : 0.324' w! l' w% I9 b* g- R
  23. Stream size                              : 5.35 GiB (82%), A: y3 ]/ t2 V8 r6 r6 D) f6 I4 o
  24. Writing library                          : x264 core 157 r2935 545de2f
    $ Y9 ]6 {& I; o, h# j
  25. Encoding settings                        : cabac=1 / ref=5 / deblock=1:-2:-2 / analyse=0x3:0x133 / me=umh / subme=9 / psy=1 / psy_rd=1.00:0.00 / mixed_ref=1 / me_range=16 / chroma_me=1 / trellis=2 / 8x8dct=1 / cqm=0 / deadzone=21,11 / fast_pskip=0 / chroma_qp_offset=-2 / threads=12 / lookahead_threads=1 / sliced_threads=0 / nr=0 / decimate=1 / interlaced=0 / bluray_compat=0 / constrained_intra=0 / bframes=3 / b_pyramid=2 / b_adapt=2 / b_bias=0 / direct=3 / weightb=1 / open_gop=0 / weightp=2 / keyint=240 / keyint_min=23 / scenecut=40 / intra_refresh=0 / rc_lookahead=50 / rc=2pass / mbtree=1 / bitrate=6720 / ratetol=1.0 / qcomp=0.60 / qpmin=0 / qpmax=69 / qpstep=4 / cplxblur=20.0 / qblur=0.5 / vbv_maxrate=62500 / vbv_bufsize=78125 / nal_hrd=none / filler=0 / ip_ratio=1.40 / aq=1:0.70# B4 x+ w7 n  V" j( i# M
  26. Default                                  : Yes! {" h! A5 ~$ W) r
  27. Forced                                   : No# w, ]6 u3 R9 u' c

  28.   n  Z2 a* `$ ?* o8 S; Z3 C2 D
  29. Audio4 g$ ~8 x5 B  G5 {
  30. ID                                       : 2$ I; x! j! P) z) q- m
  31. Format                                   : DTS
    ) e- J% }/ T, k$ k! o9 O: |" E
  32. Format/Info                              : Digital Theater Systems: M& A  P" V6 ~$ K
  33. Codec ID                                 : A_DTS
    6 f2 y& w: @! D' F; Y
  34. Duration                                 : 1 h 53 min9 f, ^/ w* Y" U5 F$ V
  35. Bit rate mode                            : Constant
    $ y8 S4 ]% G" s! J  H, B
  36. Bit rate                                 : 1 509 kb/s
    & ^! l( g. |5 U% G" @% \
  37. Channel(s)                               : 2 channels4 |4 ^2 v; P" o& U3 a5 B
  38. Channel layout                           : L R- v; o  a1 L* g% W. O! y
  39. Sampling rate                            : 48.0 kHz: `, n1 D4 B1 F) a, h$ D" o0 S
  40. Frame rate                               : 93.750 FPS (512 SPF)
    8 U* W; Q# Y  j) a: i+ n
  41. Bit depth                                : 24 bits$ E6 E# a; t, z8 Z, ?
  42. Compression mode                         : Lossy- J* F( p5 _  e2 O' J
  43. Stream size                              : 1.20 GiB (18%)
    ! {0 I% |  X' b( \. q
  44. Language                                 : English
    * _- O) p! C* R1 v; g
  45. Default                                  : Yes& a9 m# t' y, {
  46. Forced                                   : No
    5 I+ A* n% v( _) `2 p' g

  47.   \7 X) Z5 C/ T) Z" D% G, s
  48. Text
    6 O+ O, C, A2 ?/ @% T
  49. ID                                       : 36 z- p4 k5 h5 D0 A2 \
  50. Format                                   : UTF-8( o. R1 E& _2 G: `2 l4 @
  51. Codec ID                                 : S_TEXT/UTF8
    & Z. [$ z8 V( A2 n1 _" _) g
  52. Codec ID/Info                            : UTF-8 Plain Text
    . _4 B! [6 y3 V$ x
  53. Duration                                 : 1 h 50 min
    : s' u# i+ D) S* S4 N
  54. Bit rate                                 : 26 b/s
    ) R/ K' O; S) |  R3 F
  55. Count of elements                        : 5448 _- [2 o$ u) y) o. B3 E' ~0 i
  56. Stream size                              : 21.5 KiB (0%)' M! o" F; X# ]; v6 {5 l; J
  57. Language                                 : English
    ' k2 |; }* x$ H) d$ |+ j
  58. Default                                  : No
      T' ~0 m% `/ t
  59. Forced                                   : No
    & a! ?' f6 B! u9 k: _4 o4 t

  60.   b- \  Y) i% m& s. t
  61. Menu& B  ~' M4 F( Z1 }6 h, e) X& o
  62. 00:00:00.000                             : en:00:00:00.000
      [( e1 M- }$ x' u: r
  63. 00:09:05.920                             : en:00:09:05.920: I7 Z% D% j7 D- W' i" X1 u1 B
  64. 00:20:33.649                             : en:00:20:33.649
    ! |4 X7 s+ Y3 W. i2 \5 j
  65. 00:28:44.973                             : en:00:28:44.973* x3 g3 R, Q) p/ g
  66. 00:39:10.849                             : en:00:39:10.849+ p: C% s: n* B. p8 U; O( N2 ?
  67. 00:49:52.907                             : en:00:49:52.907
      x: G0 R5 B! M. N: \
  68. 00:59:00.370                             : en:00:59:00.370& a' F6 G( b" D+ X/ ?: O8 j7 U
  69. 01:07:08.107                             : en:01:07:08.107
    . }9 I# m+ n; z# p0 W& e8 @
  70. 01:15:20.266                             : en:01:15:20.266
    7 |2 [6 [0 t. H% G# p& I
  71. 01:26:34.022                             : en:01:26:34.022. \: k: Q* p0 \1 Q9 S. |  o( K+ S
  72. 01:37:54.285                             : en:01:37:54.285
    , _$ T0 T# {6 F7 Z! t8 f$ n2 o2 o
  73. 01:44:49.492                             : en:01:44:49.492
    ! y8 t6 t5 }0 r7 R# H  _# ?
  74. 01:52:22.736                             : en:01:52:22.7365 o2 O  l  `# Y; u" [
复制代码

* d* w  G& }' [复制代码( f/ O! P, G: R2 a4 h& J
) l- i, W/ U  |8 ]- y# j
092523z9v9x8707m697j8z.jpg & L2 _7 x! B9 B2 w$ ?1 B( a6 l% g

- e5 X6 C- M8 Y$ s  w0 g( E. i  x# f0 {. |! a$ p" x

  X% U2 T8 E6 L; ~9 Y
+ Y! M. Z  S; N; D% ]4 O( T: X! X  c; K' j7 z2 {9 R/ x
回复

使用道具 举报

级别:初级观众 Lv.1

UID
9727
注册时间
2018-11-9
最后登录
2019-1-13
听众
0
收听
0
主题
0
蓝光币
6 枚
贡献
0 点
发表于 2018-11-9 21:35:47 | 显示全部楼层
初来乍到,第一次回帖。辛苦发片。
回复

使用道具 举报

级别:专业龙套 Lv.4

UID
9231
注册时间
2018-10-31
最后登录
2019-1-22
听众
0
收听
0
主题
0
蓝光币
666 枚
贡献
0 点
QQ
发表于 2018-11-9 22:07:14 | 显示全部楼层
8 p8 a* b! y8 m; b& {9 C  |5 v
+ A- E% L/ P- o) x: S& q$ P
感谢楼主的无私分享!
回复

使用道具 举报

级别:群众演员 Lv.3

UID
8475
注册时间
2018-10-16
最后登录
2019-1-10
听众
1
收听
0
主题
0
蓝光币
9 枚
贡献
0 点
QQ
发表于 2018-11-10 19:20:59 | 显示全部楼层
感谢楼主的无私分享!
回复

使用道具 举报

级别:群众演员 Lv.3

UID
7828
注册时间
2018-10-4
最后登录
2019-1-21
听众
2
收听
0
主题
0
蓝光币
382 枚
贡献
0 点
发表于 2018-11-10 19:38:23 | 显示全部楼层

6 b8 O$ k1 l. a5 f, h感谢楼主的无私分享!
回复

使用道具 举报

级别:初级观众 Lv.1

UID
10166
注册时间
2018-11-15
最后登录
2018-11-20
听众
0
收听
0
主题
0
蓝光币
27 枚
贡献
0 点
发表于 2018-11-18 12:34:00 | 显示全部楼层
感谢楼主的无私分享!
回复

使用道具 举报

懒得打字嘛,点击右侧快捷回复 【右侧内容,后台自定义】
您需要登录后才可以回帖 登录 | 立即注册

本版积分规则

QQ|Archiver|手机版|小黑屋|中国高清网 |网站地图

GMT+8, 2019-1-22 08:44 , Processed in 0.125338 second(s), 41 queries .

Powered by HDchina X3.4

Copyright 2017-2018©HDchina.All right reserved

返回顶部 联系我们