你所知道的4K资源这里全部都有 4K电影 | 4K视频 | 4K壁纸 | 4K MV 怎么播放4K视频 | 4K电视演示片

教你玩转4K私人与家庭影院存储 NAS组装 | 黑群辉 家庭/影院Nas论坛

4K家庭影院信号源与视频设备知识 4K蓝光高清播放机 - 那个品牌好? 4K投影机论坛 | 4K电视机论坛

手把手教你搭建属于自己的家庭影院 4K家庭影院案例 | 家庭影院音频 4K家庭影院论坛

查看: 99|回复: 5

[恐怖片] 暴君尼禄荒淫史2 Porno.Holocaust.1981.DUBBED.720p.BluRay.x264-CREEPSHOW 6.55GB

[复制链接]

级别:资源管理组

UID
1
注册时间
2017-10-20
最后登录
2018-11-21
听众
0
收听
0
主题
72220
蓝光币
99015 枚
贡献
142028 点
发表于 2018-11-9 09:25:21 | 显示全部楼层 |阅读模式
暴君尼禄荒淫史2 Porno.Holocaust.1981.DUBBED.720p.BluRay.x264-CREEPSHOW 6.55GB-1.jpg
+ o/ M9 }! u" \; ]: u" @◎译  名 暴君尼禄荒淫史2 / Orgasmo nero II - Insel der Zombies
5 e- T3 T: X- y6 x, a+ c◎片  名 暴君尼禄荒淫史2 Porno Holocaust
  r+ `0 A' t  u2 G; A◎年  代 1981
# u5 o7 q7 ~" G* s+ B◎国  家 意大利! T9 b. k* v/ R, U0 l. U
◎类  别 可骇 / 情色
3 _% W- z- C, w( b8 b0 `◎语  言 意大利语
( `1 D: m) ?( b4 N: I! Q* I' k◎上映日期 1981
2 C# v$ ?$ H2 q) U- ^/ g9 f) W◎IMDb评分  3.1/10 from 1,034 users
/ g0 E, U0 E( M8 r  R  }◎IMDb链接  http://www.imdb.com/title/tt0235686/& \" Z! `4 \. C* z1 m/ u
◎豆瓣评分 今朝无人评价0 y- w) a- S$ w/ `; g5 r
◎豆瓣链接 https://movie.douban.com/subject/2253525/5 x8 d. H! e8 t+ y7 R" I( F$ S$ h
◎片  长 113分钟
5 J4 {' n, L1 r8 }! x◎导  演 Joe D'Amato
4 B! p" X2 o! m% G0 q! z' \0 O◎主  演 George Eastman
9 l7 I- d, K) `& O) \( m" }+ T9 b* z- b6 {8 S0 f- X) G
◎简  介 
- a# e& S8 S; `- W5 Y" r, K1 f0 v" p' X9 C4 J
  A group of castaways wash ashore on a deserted island in this Italian sex/gore movie. They are unaware that a sex-crazed radioactive monster is also on the island. He attacks and rapes several of the women, who die horrible deaths because his sperm is radioactive. The survivors must find a way to either escape the island or kill the monster.
, r8 |# u6 L4 s4 W
3 `6 f- C2 x5 @
  • Video
  • ID                                       : 1
  • Format                                   : AVC
  • Format/Info                              : Advanced Video Codec
  • Format profile                           : [email protected]
  • Format settings                          : CABAC / 5 Ref Frames
  • Format settings, CABAC                   : Yes
  • Format settings, ReFrames                : 5 frames
  • Codec ID                                 : V_MPEG4/ISO/AVC
  • Duration                                 : 1 h 53 min
  • Bit rate                                 : 6 720 kb/s
  • Width                                    : 1 200 pixels
  • Height                                   : 720 pixels
  • Display aspect ratio                     : 5:3
  • Frame rate mode                          : Constant
  • Frame rate                               : 23.976 (24000/1001) FPS
  • Color space                              : YUV
  • Chroma subsampling                       : 4:2:0
  • Bit depth                                : 8 bits
  • Scan type                                : Progressive
  • Bits/(Pixel*Frame)                       : 0.324
  • Stream size                              : 5.35 GiB (82%)
  • Writing library                          : x264 core 157 r2935 545de2f
  • Encoding settings                        : cabac=1 / ref=5 / deblock=1:-2:-2 / analyse=0x3:0x133 / me=umh / subme=9 / psy=1 / psy_rd=1.00:0.00 / mixed_ref=1 / me_range=16 / chroma_me=1 / trellis=2 / 8x8dct=1 / cqm=0 / deadzone=21,11 / fast_pskip=0 / chroma_qp_offset=-2 / threads=12 / lookahead_threads=1 / sliced_threads=0 / nr=0 / decimate=1 / interlaced=0 / bluray_compat=0 / constrained_intra=0 / bframes=3 / b_pyramid=2 / b_adapt=2 / b_bias=0 / direct=3 / weightb=1 / open_gop=0 / weightp=2 / keyint=240 / keyint_min=23 / scenecut=40 / intra_refresh=0 / rc_lookahead=50 / rc=2pass / mbtree=1 / bitrate=6720 / ratetol=1.0 / qcomp=0.60 / qpmin=0 / qpmax=69 / qpstep=4 / cplxblur=20.0 / qblur=0.5 / vbv_maxrate=62500 / vbv_bufsize=78125 / nal_hrd=none / filler=0 / ip_ratio=1.40 / aq=1:0.70
  • Default                                  : Yes
  • Forced                                   : No
  • Audio
  • ID                                       : 2
  • Format                                   : DTS
  • Format/Info                              : Digital Theater Systems
  • Codec ID                                 : A_DTS
  • Duration                                 : 1 h 53 min
  • Bit rate mode                            : Constant
  • Bit rate                                 : 1 509 kb/s
  • Channel(s)                               : 2 channels
  • Channel layout                           : L R
  • Sampling rate                            : 48.0 kHz
  • Frame rate                               : 93.750 FPS (512 SPF)
  • Bit depth                                : 24 bits
  • Compression mode                         : Lossy
  • Stream size                              : 1.20 GiB (18%)
  • Language                                 : English
  • Default                                  : Yes
  • Forced                                   : No
  • Text
  • ID                                       : 3
  • Format                                   : UTF-8
  • Codec ID                                 : S_TEXT/UTF8
  • Codec ID/Info                            : UTF-8 Plain Text
  • Duration                                 : 1 h 50 min
  • Bit rate                                 : 26 b/s
  • Count of elements                        : 544
  • Stream size                              : 21.5 KiB (0%)
  • Language                                 : English
  • Default                                  : No
  • Forced                                   : No
  • Menu
  • 00:00:00.000                             : en:00:00:00.000
  • 00:09:05.920                             : en:00:09:05.920
  • 00:20:33.649                             : en:00:20:33.649
  • 00:28:44.973                             : en:00:28:44.973
  • 00:39:10.849                             : en:00:39:10.849
  • 00:49:52.907                             : en:00:49:52.907
  • 00:59:00.370                             : en:00:59:00.370
  • 01:07:08.107                             : en:01:07:08.107
  • 01:15:20.266                             : en:01:15:20.266
  • 01:26:34.022                             : en:01:26:34.022
  • 01:37:54.285                             : en:01:37:54.285
  • 01:44:49.492                             : en:01:44:49.492
  • 01:52:22.736                             : en:01:52:22.736
    # l/ i3 x- ^' o# t+ b- p/ V. N

" H/ q. n5 J; A( J复制代码, U  h0 W) U- J; [" h0 ~

4 \, X9 x1 G, l 092523z9v9x8707m697j8z.jpg 0 O) l; ~& @) D$ Z4 M0 t

5 n  B) `2 p" m5 n" \" P: y2 o4 A) Y

& T: m9 s# t0 t; H+ G! o  R3 B" M9 Y* U/ i! K0 G( p

# V1 K6 @9 g* ]/ v
回复

使用道具 举报

级别:初级观众 Lv.1

UID
9727
注册时间
2018-11-9
最后登录
2018-11-9
听众
0
收听
0
主题
0
蓝光币
0 枚
贡献
0 点
发表于 2018-11-9 21:35:47 | 显示全部楼层
初来乍到,第一次回帖。辛苦发片。
回复

使用道具 举报

级别:群众演员 Lv.3

UID
9231
注册时间
2018-10-31
最后登录
2018-11-21
听众
0
收听
0
主题
0
蓝光币
218 枚
贡献
0 点
QQ
发表于 2018-11-9 22:07:14 | 显示全部楼层
. K) I. f7 H5 |, z
. K( O% l  ^$ G2 X9 L- Q
感谢楼主的无私分享!
回复

使用道具 举报

级别:普通观众 Lv.2

UID
8475
注册时间
2018-10-16
最后登录
2018-11-21
听众
1
收听
0
主题
0
蓝光币
32 枚
贡献
0 点
QQ
发表于 2018-11-10 19:20:59 | 显示全部楼层
感谢楼主的无私分享!
回复

使用道具 举报

级别:群众演员 Lv.3

UID
7828
注册时间
2018-10-4
最后登录
2018-11-21
听众
2
收听
0
主题
0
蓝光币
179 枚
贡献
0 点
发表于 2018-11-10 19:38:23 | 显示全部楼层

* A2 F. @3 s9 f5 w: _感谢楼主的无私分享!
回复

使用道具 举报

级别:初级观众 Lv.1

UID
10166
注册时间
2018-11-15
最后登录
2018-11-20
听众
0
收听
0
主题
0
蓝光币
27 枚
贡献
0 点
发表于 3 天前 | 显示全部楼层
感谢楼主的无私分享!
回复

使用道具 举报

您需要登录后才可以回帖 登录 | 立即注册

本版积分规则

QQ|Archiver|手机版|小黑屋|中国高清网  |网站地图

GMT+8, 2018-11-21 22:36 , Processed in 0.129964 second(s), 42 queries .

Powered by HDchina X3.4

Copyright 2017-2018©HDchina.All right reserved

返回顶部 联系我们