你所知道的4K资源这里全部都有 4K电影 | 4K视频 | 4K壁纸 | 4K MV 怎么播放4K视频 | 4K电视演示片

教你玩转4K私人与家庭影院存储 NAS组装 | 黑群辉 家庭/影院Nas论坛

4K家庭影院信号源与视频设备知识 4K蓝光高清播放机 - 那个品牌好? 4K投影机论坛 | 4K电视机论坛

手把手教你搭建属于自己的家庭影院 4K家庭影院案例 | 家庭影院音频 4K家庭影院论坛

查看: 815|回复: 5

[恐怖片] 暴君尼禄荒淫史2 Porno.Holocaust.1981.DUBBED.720p.BluRay.x264-CREEPSHOW 6.55GB

[复制链接]

 成长值: 1040

级别:资源管理组

注册时间
2017-10-20
最后登录
2019-4-23
听众
0
收听
0
主题
76979
蓝光币
8537 枚
贡献
1287 点
发表于 2018-11-9 09:25:21 | 显示全部楼层 |阅读模式
暴君尼禄荒淫史2 Porno.Holocaust.1981.DUBBED.720p.BluRay.x264-CREEPSHOW 6.55GB-1.jpg . U; b) j7 S6 k9 T4 |3 ?! P
◎译  名 暴君尼禄荒淫史2 / Orgasmo nero II - Insel der Zombies
/ ?' ]+ L1 O4 e( E6 Q◎片  名 暴君尼禄荒淫史2 Porno Holocaust
  A7 S0 N2 V' i' s7 I+ Q◎年  代 1981
- q$ ?! r3 I+ `◎国  家 意大利
/ l5 e; Z% K7 T( J◎类  别 可骇 / 情色
2 r$ n6 _, _! u9 e6 Y% r◎语  言 意大利语
# V/ q& d8 m& @8 W1 C. {1 p7 {- b◎上映日期 1981: N% Q2 [) P* o8 L4 z4 U( I
◎IMDb评分  3.1/10 from 1,034 users
4 {0 n- `, B6 F, ?◎IMDb链接  http://www.imdb.com/title/tt0235686/
2 @9 M8 [* `* `7 H8 O  o. ~◎豆瓣评分 今朝无人评价/ W9 g/ E9 x) o4 N( H; K# i* Z
◎豆瓣链接 https://movie.douban.com/subject/2253525/, t  Q' j/ X( H. i( G* E+ a" }, x
◎片  长 113分钟' P2 L  X6 e  v' R+ N
◎导  演 Joe D'Amato
: Z8 ^* r8 b1 F: `; j2 }◎主  演 George Eastman% U( s9 w) l: @( h; t7 M$ v* u

4 {- K# [2 j5 F; W  O/ z% \& a◎简  介 8 j2 q7 V3 K2 M1 J: O7 C$ y* K
2 ]1 M; B2 r( A" ]+ \8 Q) p; G
  A group of castaways wash ashore on a deserted island in this Italian sex/gore movie. They are unaware that a sex-crazed radioactive monster is also on the island. He attacks and rapes several of the women, who die horrible deaths because his sperm is radioactive. The survivors must find a way to either escape the island or kill the monster., k' R( K% v4 L! N4 s# L$ z0 l
) Y! M# R$ L6 H3 B# d

  1. ( w8 |6 N  h' w# p& [6 t  B
  2. Video
    6 a& M2 ]+ l1 ^( L- y! K. O# t
  3. ID                                       : 1
    * I' N( J: a6 v5 l# s
  4. Format                                   : AVC
      o6 O$ P  l7 l  o+ K$ j1 |1 J* H9 f
  5. Format/Info                              : Advanced Video Codec
    " R, q, `: Z' b/ V# C4 ?$ x, n. H3 `* {
  6. Format profile                           : [url=/cdn-cgi/l/email-protection][email protected][/url]! f& {, w# k) m3 r( m! n  h
  7. Format settings                          : CABAC / 5 Ref Frames
    $ |5 G3 x- l6 V3 @% Q; D
  8. Format settings, CABAC                   : Yes
    ( H$ L  l4 e7 D1 y, M) F% n
  9. Format settings, ReFrames                : 5 frames  n9 D8 Z9 J8 u8 v0 _; k
  10. Codec ID                                 : V_MPEG4/ISO/AVC
    , f9 y0 p- _7 n9 [
  11. Duration                                 : 1 h 53 min* a2 l# N" _( |# `/ v* V4 e
  12. Bit rate                                 : 6 720 kb/s
    4 N/ Y' e  W% d" |" G
  13. Width                                    : 1 200 pixels9 D- Y4 n! X! R' S/ y
  14. Height                                   : 720 pixels6 p4 Y  j6 x4 N, M0 T
  15. Display aspect ratio                     : 5:3
    - W- O1 i# X; j8 `# f0 T! W! h
  16. Frame rate mode                          : Constant
    , m9 ~# g+ j- c! U" ]
  17. Frame rate                               : 23.976 (24000/1001) FPS
    - g7 ~0 d: X9 X5 c3 P* f. _; h
  18. Color space                              : YUV' J  q( ]2 t: x; w" k
  19. Chroma subsampling                       : 4:2:00 N9 _$ y* G! c
  20. Bit depth                                : 8 bits
    " x# E4 B" O& x5 ^: j7 ]1 F7 [
  21. Scan type                                : Progressive- V0 j4 K0 r0 ~" h4 n! d+ m
  22. Bits/(Pixel*Frame)                       : 0.324
    7 d: l. p( Z9 ^( v$ F
  23. Stream size                              : 5.35 GiB (82%)2 y5 V. w6 M: H0 O
  24. Writing library                          : x264 core 157 r2935 545de2f. d* @. v/ U% G
  25. Encoding settings                        : cabac=1 / ref=5 / deblock=1:-2:-2 / analyse=0x3:0x133 / me=umh / subme=9 / psy=1 / psy_rd=1.00:0.00 / mixed_ref=1 / me_range=16 / chroma_me=1 / trellis=2 / 8x8dct=1 / cqm=0 / deadzone=21,11 / fast_pskip=0 / chroma_qp_offset=-2 / threads=12 / lookahead_threads=1 / sliced_threads=0 / nr=0 / decimate=1 / interlaced=0 / bluray_compat=0 / constrained_intra=0 / bframes=3 / b_pyramid=2 / b_adapt=2 / b_bias=0 / direct=3 / weightb=1 / open_gop=0 / weightp=2 / keyint=240 / keyint_min=23 / scenecut=40 / intra_refresh=0 / rc_lookahead=50 / rc=2pass / mbtree=1 / bitrate=6720 / ratetol=1.0 / qcomp=0.60 / qpmin=0 / qpmax=69 / qpstep=4 / cplxblur=20.0 / qblur=0.5 / vbv_maxrate=62500 / vbv_bufsize=78125 / nal_hrd=none / filler=0 / ip_ratio=1.40 / aq=1:0.70
    % h* O0 k0 t# ?6 j. h! W
  26. Default                                  : Yes
    8 G6 U' w4 n( ?
  27. Forced                                   : No0 ~# ]" P3 X0 n8 U* b1 h+ n

  28. " H* M! k( T2 h- y' D1 U# J9 m
  29. Audio
    9 i# V1 H/ F: d9 H  t' I5 I& o
  30. ID                                       : 2' z4 `: A) n" [8 |
  31. Format                                   : DTS
    ! O: S( p  T' q& _, B
  32. Format/Info                              : Digital Theater Systems- H* j2 [/ e' I+ ?6 e* M( M
  33. Codec ID                                 : A_DTS2 ^% |# X) k& r% X3 U: I
  34. Duration                                 : 1 h 53 min
    4 W8 F& Q3 [. E
  35. Bit rate mode                            : Constant2 I; m, F2 @* D# r, o$ o: c
  36. Bit rate                                 : 1 509 kb/s+ {: D1 h( S1 U6 h
  37. Channel(s)                               : 2 channels) T7 N8 U0 f2 [' p; |2 K
  38. Channel layout                           : L R5 d& J; ?9 }( Z- D" q
  39. Sampling rate                            : 48.0 kHz# [$ q! y# D" k; q
  40. Frame rate                               : 93.750 FPS (512 SPF)0 D# N/ M' [" A0 ]% ]. S' m0 |
  41. Bit depth                                : 24 bits' K- K4 E- y' y
  42. Compression mode                         : Lossy
    8 P1 E( t7 |% U# S, c
  43. Stream size                              : 1.20 GiB (18%)) p+ h2 t7 Z& a/ C, \+ n; h; `
  44. Language                                 : English
    3 m( i1 B7 l; K5 Y- z) Q  U( q* R
  45. Default                                  : Yes
    % D1 \0 S  C* A6 w; q/ N$ R% u
  46. Forced                                   : No- I1 B# C( _( l( @6 e' }
  47. 1 G# Y6 Y  `) N& T
  48. Text# C% z. j- T5 O1 s3 [. N
  49. ID                                       : 39 h7 F. L' h) x: t- y  A! k0 O
  50. Format                                   : UTF-8
    : Q7 Z7 s3 T2 _! E: i- i: Q
  51. Codec ID                                 : S_TEXT/UTF8% b6 f+ |4 }' e0 [/ T
  52. Codec ID/Info                            : UTF-8 Plain Text
    0 z8 w. \3 q# R# x
  53. Duration                                 : 1 h 50 min: \7 G4 N5 ^. L. n8 w
  54. Bit rate                                 : 26 b/s& P# U4 x' L9 [4 S0 V2 W4 M
  55. Count of elements                        : 544* U' ~- S# A/ ?5 g
  56. Stream size                              : 21.5 KiB (0%)
    4 |3 p6 ?5 R: Y, u9 j4 b+ F
  57. Language                                 : English) q* a5 O( Z$ [) g
  58. Default                                  : No
    ) e+ n% ?9 N4 k1 x2 o
  59. Forced                                   : No
    : U8 s) \: G  b

  60. 1 Y2 z. W# v7 p+ [+ v+ l& _& f
  61. Menu
    5 p1 N- ]& {" h! _& N, Q/ k* \
  62. 00:00:00.000                             : en:00:00:00.000
    7 `2 p5 `, @3 W3 b. I; j, d0 Q
  63. 00:09:05.920                             : en:00:09:05.920
    5 f' ~0 H8 X4 N, P/ U
  64. 00:20:33.649                             : en:00:20:33.649
    / i$ W- ~5 ?3 H- r* y
  65. 00:28:44.973                             : en:00:28:44.973
    0 k& E+ Y) N4 Y* n$ B
  66. 00:39:10.849                             : en:00:39:10.849! Q& g; h7 @2 s8 {: n4 S
  67. 00:49:52.907                             : en:00:49:52.9074 e, e* \6 U4 ?- m+ p
  68. 00:59:00.370                             : en:00:59:00.370, S' m! D  c* S" w4 r
  69. 01:07:08.107                             : en:01:07:08.107
    + e( E1 _8 t- o8 B6 ]; M
  70. 01:15:20.266                             : en:01:15:20.266
    $ I& x0 ?. X* T
  71. 01:26:34.022                             : en:01:26:34.022
    & L/ K3 X% J: f4 u
  72. 01:37:54.285                             : en:01:37:54.285
    " e4 M% Y1 _9 {$ U
  73. 01:44:49.492                             : en:01:44:49.492
    " d, B! E1 b2 _' C6 q: n
  74. 01:52:22.736                             : en:01:52:22.736
    . `; z1 J, Y8 N$ P
复制代码
6 G! }2 C2 p5 m* C) Z: }
复制代码0 B' o- Z$ t! H% s

% o1 W( L5 q! F/ G 092523z9v9x8707m697j8z.jpg $ @  ~9 v: U) ?# z

- `4 w% s+ F0 e6 O  m+ o* [9 U$ E7 U; J( V# g" @
$ {  W2 \# F# v0 x, T/ s; ~
- X7 a3 F) [1 F
" Z- j5 N& O' Z" H/ L$ ~5 O, C
回复

使用道具 举报

级别:初级观众 Lv.1

注册时间
2018-11-9
最后登录
2019-1-13
听众
1
收听
0
主题
0
蓝光币
6 枚
贡献
0 点
发表于 2018-11-9 21:35:47 | 显示全部楼层
初来乍到,第一次回帖。辛苦发片。
回复

使用道具 举报

级别:荣升主角 Lv.5

注册时间
2018-10-31
最后登录
2019-4-23
听众
2
收听
0
主题
0
蓝光币
1073 枚
贡献
0 点
QQ
发表于 2018-11-9 22:07:14 | 显示全部楼层
! l! Y# ?: j+ S' q  y

5 F$ x" i( K  T6 F5 o4 B感谢楼主的无私分享!
回复

使用道具 举报

级别:群众演员 Lv.3

注册时间
2018-10-16
最后登录
2019-4-19
听众
2
收听
0
主题
0
蓝光币
1 枚
贡献
0 点
QQ
发表于 2018-11-10 19:20:59 | 显示全部楼层
感谢楼主的无私分享!
回复

使用道具 举报

级别:专业龙套 Lv.4

注册时间
2018-10-4
最后登录
2019-2-27
听众
3
收听
0
主题
0
蓝光币
492 枚
贡献
0 点
发表于 2018-11-10 19:38:23 | 显示全部楼层
6 d1 w& b  Y/ V9 y* F. k' D
感谢楼主的无私分享!
回复

使用道具 举报

级别:初级观众 Lv.1

注册时间
2018-11-15
最后登录
2018-11-20
听众
1
收听
0
主题
0
蓝光币
27 枚
贡献
0 点
发表于 2018-11-18 12:34:00 | 显示全部楼层
感谢楼主的无私分享!
回复

使用道具 举报

懒得打字嘛,点击右侧快捷回复 【右侧内容,后台自定义】
您需要登录后才可以回帖 登录 | 立即注册

本版积分规则

QQ|Archiver|手机版|小黑屋|中国高清网  |网站地图

GMT+8, 2019-4-23 18:38 , Processed in 0.131719 second(s), 42 queries .

Powered by HDchina X3.4

Copyright 2017-2018©HDchina.All right reserved

返回顶部 联系我们