你所知道的4K资源这里全部都有 4K电影 | 4K视频 | 4K壁纸 | 4K MV 怎么播放4K视频 | 4K电视演示片

教你玩转4K私人与家庭影院存储 NAS组装 | 黑群辉 家庭/影院Nas论坛

4K家庭影院信号源与视频设备知识 4K蓝光高清播放机 - 那个品牌好? 4K投影机论坛 | 4K电视机论坛

手把手教你搭建属于自己的家庭影院 4K家庭影院案例 | 家庭影院音频 4K家庭影院论坛

查看: 48|回复: 2

[剧情片] 美声/美声人质 Bel.Canto.2018.1080p.BluRay.REMUX.AVC.DTS-HD.MA.5.1-FGT 13.43GB

[复制链接]

级别:资源管理组

UID
1
注册时间
2017-10-20
最后登录
2018-11-21
听众
0
收听
0
主题
72220
蓝光币
99015 枚
贡献
142028 点
发表于 2018-11-8 11:05:01 | 显示全部楼层 |阅读模式

美声/美声人质 Bel.Canto.2018.1080p.BluRay.REMUX.AVC.DTS-HD.MA.5.1-FGT 13.43GB-1.jpg
◎译  名 美声 / 美声人质(港) / 美声唱法
◎片  名 美声 Bel Canto
◎年  代 2018
◎国  家 美国
◎类  别 剧情
◎语  言 英语
◎上映日期 2018-09-14(美国)
◎IMDb评分  5.1/10 from 701 users
◎IMDb链接  http://www.imdb.com/title/tt6046314/
◎豆瓣评分 5.6/10 from 283 users
◎豆瓣链接 https://movie.douban.com/subject/26919044/
◎片  长 102分钟
◎导  演 保罗·韦兹
◎主  演 朱丽安·摩尔
      克里斯多弗·兰伯特
      渡边谦
      奥莱克·克鲁帕
      塞巴斯蒂安·科赫
      托尔比约恩·哈尔
      约翰尼·奥蒂斯
      艾尔莎·泽贝斯坦
      特诺切·韦尔塔
      加濑亮
      马科斯·A·冈萨雷斯

◎简  介 

  南美一个不著名的国家,深夜的副总统官邸人声鼎沸,来自天下各地的权贵要要,正为日本巨贾细川克实的生日宴会齐聚一堂,全球极负盛名的女低音罗克珊,也应邀到临献唱。这是个极为完善的夜晚——直到一群武装可骇份子从冷气透风管侵入,将一切预会人士挟持为人质为止。
  这部扣民气弦的“可骇片”,在罗克珊要求将曲谱送进官邸以后,起头出现纤细变化。“狰狞”的可骇份子和美好的意大利歌剧、文雅的艺术和诡秘的政治、冰冷的兵器和灼热的崇敬.权贵与穷户、东方巨贾与西方名伶……一切看似最不调和的音符和最不搭调的人物被搬上了同一舞台,归纳出一场轰轰烈烈的悲笑剧。回荡在舞台上空的,始终是罗克珊那使人渴望亲吻的歌喉,连同无孔不入的人性与恋爱,让人们逐步忘怀自己仍然身处在一触即发的火山口,沦为她美声的俘虏……

  • Video
  • ID                                       : 1
  • Format                                   : AVC
  • Format/Info                              : Advanced Video Codec
  • Format profile                           : [email protected]
  • Format settings                          : CABAC / 3 Ref Frames
  • Format settings, CABAC                   : Yes
  • Format settings, ReFrames                : 3 frames
  • Format settings, GOP                     : M=3, N=12
  • Codec ID                                 : V_MPEG4/ISO/AVC
  • Duration                                 : 1 h 40 min
  • Bit rate mode                            : Variable
  • Bit rate                                 : 14.2 Mb/s
  • Maximum bit rate                         : 35.0 Mb/s
  • Width                                    : 1 920 pixels
  • Height                                   : 1 080 pixels
  • Display aspect ratio                     : 16:9
  • Frame rate mode                          : Constant
  • Frame rate                               : 23.976 (24000/1001) FPS
  • Standard                                 : NTSC
  • Color space                              : YUV
  • Chroma subsampling                       : 4:2:0
  • Bit depth                                : 8 bits
  • Scan type                                : Progressive
  • Bits/(Pixel*Frame)                       : 0.285
  • Stream size                              : 9.99 GiB (74%)
  • Title                                    : Bel.Canto.2018.1080p.BluRay.REMUX.AVC.DTS-HD.MA.5.1-FGT
  • Language                                 : English
  • Default                                  : No
  • Forced                                   : No
  • Color range                              : Limited
  • Color primaries                          : BT.709
  • Transfer characteristics                 : BT.709
  • Matrix coefficients                      : BT.709
  • Audio #1
  • ID                                       : 2
  • Format                                   : DTS XLL
  • Format/Info                              : Digital Theater Systems
  • Commercial name                          : DTS-HD Master Audio
  • Codec ID                                 : A_DTS
  • Duration                                 : 1 h 40 min
  • Bit rate mode                            : Variable
  • Bit rate                                 : 3 364 kb/s
  • Channel(s)                               : 6 channels
  • Channel layout                           : C L R Ls Rs LFE
  • Sampling rate                            : 48.0 kHz
  • Frame rate                               : 93.750 FPS (512 SPF)
  • Bit depth                                : 24 bits
  • Compression mode                         : Lossless
  • Stream size                              : 2.37 GiB (18%)
  • Title                                    : Bel.Canto.2018.1080p.BluRay.REMUX.AVC.DTS-HD.MA.5.1-FGT
  • Language                                 : English
  • Default                                  : Yes
  • Forced                                   : No
  • Audio #2
  • ID                                       : 3
  • Format                                   : DTS
  • Format/Info                              : Digital Theater Systems
  • Codec ID                                 : A_DTS
  • Duration                                 : 1 h 40 min
  • Bit rate mode                            : Constant
  • Bit rate                                 : 1 509 kb/s
  • Channel(s)                               : 6 channels
  • Channel layout                           : C L R Ls Rs LFE
  • Sampling rate                            : 48.0 kHz
  • Frame rate                               : 93.750 FPS (512 SPF)
  • Bit depth                                : 24 bits
  • Compression mode                         : Lossy
  • Stream size                              : 1.06 GiB (8%)
  • Title                                    : Bel.Canto.2018.1080p.BluRay.REMUX.AVC.DTS-HD.MA.5.1-FGT
  • Language                                 : English
  • Default                                  : No
  • Forced                                   : No
  • Text
  • ID                                       : 4
  • Format                                   : PGS
  • Muxing mode                              : zlib
  • Codec ID                                 : S_HDMV/PGS
  • Codec ID/Info                            : Picture based subtitle format used on BDs/HD-DVDs
  • Duration                                 : 1 h 35 min
  • Bit rate                                 : 10.7 kb/s
  • Count of elements                        : 2224
  • Stream size                              : 7.35 MiB (0%)
  • Title                                    : English-PGS
  • Language                                 : English
  • Default                                  : Yes
  • Forced                                   : No
  • Menu
  • 00:00:00.000                             : en:Chapter 01
  • 00:08:30.218                             : en:Chapter 02
  • 00:20:14.838                             : en:Chapter 03
  • 00:27:27.729                             : en:Chapter 04
  • 00:35:59.365                             : en:Chapter 05
  • 00:42:02.937                             : en:Chapter 06
  • 00:52:07.541                             : en:Chapter 07
  • 01:01:59.674                             : en:Chapter 08
  • 01:13:56.181                             : en:Chapter 09
  • 01:18:35.961                             : en:Chapter 10
  • 01:26:03.116                             : en:Chapter 11
  • 01:34:27.953                             : en:Chapter 12

复制代码

美声/美声人质 Bel.Canto.2018.1080p.BluRay.REMUX.AVC.DTS-HD.MA.5.1-FGT 13.43GB-2.png 美声/美声人质 Bel.Canto.2018.1080p.BluRay.REMUX.AVC.DTS-HD.MA.5.1-FGT 13.43GB-3.png 美声/美声人质 Bel.Canto.2018.1080p.BluRay.REMUX.AVC.DTS-HD.MA.5.1-FGT 13.43GB-4.png




回复

使用道具 举报

级别:普通观众 Lv.2

UID
6712
注册时间
2018-9-6
最后登录
2018-11-21
听众
3
收听
0
主题
0
蓝光币
37 枚
贡献
0 点
发表于 2018-11-8 11:55:28 | 显示全部楼层
谢谢楼主分享
回复

使用道具 举报

级别:专业龙套 Lv.4

UID
4064
注册时间
2018-5-27
最后登录
2018-11-18
听众
3
收听
0
主题
0
蓝光币
-1 枚
贡献
0 点
发表于 5 天前 | 显示全部楼层
感谢分享!
回复

使用道具 举报

您需要登录后才可以回帖 登录 | 立即注册

本版积分规则

QQ|Archiver|手机版|小黑屋|中国高清网  |网站地图

GMT+8, 2018-11-21 22:49 , Processed in 0.145122 second(s), 41 queries .

Powered by HDchina X3.4

Copyright 2017-2018©HDchina.All right reserved

返回顶部 联系我们