你所知道的4K资源这里全部都有 4K电影 | 4K视频 | 4K壁纸 | 4K MV 怎么播放4K视频 | 4K电视演示片

教你玩转4K私人与家庭影院存储 NAS组装 | 黑群辉 家庭/影院Nas论坛

4K家庭影院信号源与视频设备知识 4K蓝光高清播放机 - 那个品牌好? 4K投影机论坛 | 4K电视机论坛

手把手教你搭建属于自己的家庭影院 4K家庭影院案例 | 家庭影院音频 4K家庭影院论坛

查看: 70|回复: 0

[惊悚片] 逃狱雪冤/黑道 Dark.Passage.1947.1080p.BluRay.x264-SiNNERS 9.84GB

[复制链接]

 成长值: 120

级别:资源管理组

UID
1
注册时间
2017-10-20
最后登录
2019-1-22
听众
0
收听
0
主题
73918
蓝光币
116409 枚
贡献
143727 点
发表于 2018-11-8 10:59:22 | 显示全部楼层 |阅读模式

逃狱雪冤/黑道 Dark.Passage.1947.1080p.BluRay.x264-SiNNERS 9.84GB-1.jpg
◎译  名 逃狱雪冤 / 黑道 / 夜客
◎片  名 逃狱雪冤 Dark Passage
◎年  代 1947
◎国  家 美国
◎类  别 惊悚 / 黑色电影
◎语  言 英语
◎上映日期 1947-09-27
◎IMDb评分  7.6/10 from 15,294 users
◎IMDb链接  http://www.imdb.com/title/tt0039302/
◎豆瓣评分 7.2/10 from 458 users
◎豆瓣链接 https://movie.douban.com/subject/1293416/
◎片  长 106 分钟
◎导  演 德尔默·戴夫斯
◎主  演 亨弗莱·鲍嘉
      劳伦·白考尔

◎简  介 

  被控告杀戮妻子的Parry(亨弗莱·鲍嘉 Humphrey Bogart 饰)对峙他是无罪的,并在被押往狱中的路上逃窜,在路上他截了一辆过路的车,让司机载他去旧金山。但是司机认出他是罪犯,想要密告他。Parry将司机打晕后,在一个陌生女子Irene(劳伦·白考尔 Lauren Bacall 饰)帮助下躲过差人的追捕,来到Irene家中。本来Irene的父亲曾被误判杀死妻子而死在狱中,因而她一向在关注Parry的案件。Parry去找他的好友,路上的计程车司机也认出了他,并先容他去一个整容医生。在医生那边,Parry接管了整容手术,但是等他回到他好友家中的时辰,发现好友意外灭亡。他顿时成了怀疑人。背负两宗命案而“改头换面”的Parry能否沉冤得雪,实在的凶手又是谁?


  1. Video
  2. ID                                       : 1
  3. Format                                   : AVC
  4. Format/Info                              : Advanced Video Codec
  5. Format profile                           : [url=/cdn-cgi/l/email-protection][email protected][/url]
  6. Format settings, CABAC                   : Yes
  7. Format settings, ReFrames                : 5 frames
  8. Codec ID                                 : V_MPEG4/ISO/AVC
  9. Duration                                 : 1h 46mn
  10. Bit rate                                 : 11.7 Mbps
  11. Width                                    : 1 472 pixels
  12. Height                                   : 1 080 pixels
  13. Display aspect ratio                     : 4:3
  14. Frame rate mode                          : Constant
  15. Frame rate                               : 23.976 (24000/1001) fps
  16. Color space                              : YUV
  17. Chroma subsampling                       : 4:2:0
  18. Bit depth                                : 8 bits
  19. Scan type                                : Progressive
  20. Bits/(Pixel*Frame)                       : 0.308
  21. Stream size                              : 8.52 GiB (87%)
  22. Writing library                          : x264 core 148 r2694 3b70645
  23. Encoding settings                        : cabac=1 / ref=5 / deblock=1:0:0 / analyse=0x3:0x113 / me=umh / subme=8 / psy=1 / psy_rd=1.00:0.00 / mixed_ref=1 / me_range=16 / chroma_me=1 / trellis=1 / 8x8dct=1 / cqm=0 / deadzone=21,11 / fast_pskip=0 / chroma_qp_offset=-2 / threads=18 / lookahead_threads=3 / sliced_threads=0 / nr=0 / decimate=1 / interlaced=0 / bluray_compat=0 / constrained_intra=0 / bframes=3 / b_pyramid=2 / b_adapt=1 / b_bias=0 / direct=1 / weightb=1 / open_gop=0 / weightp=2 / keyint=250 / keyint_min=23 / scenecut=40 / intra_refresh=0 / rc_lookahead=40 / rc=2pass / mbtree=1 / bitrate=11747 / ratetol=1.0 / qcomp=0.60 / qpmin=0 / qpmax=69 / qpstep=4 / cplxblur=20.0 / qblur=0.5 / ip_ratio=1.40 / aq=1:1.00
  24. Language                                 : English
  25. Default                                  : Yes
  26. Forced                                   : No

  27. Audio
  28. ID                                       : 2
  29. Format                                   : DTS
  30. Format/Info                              : Digital Theater Systems
  31. Mode                                     : 16
  32. Format settings, Endianness              : Big
  33. Codec ID                                 : A_DTS
  34. Duration                                 : 1h 46mn
  35. Bit rate mode                            : Constant
  36. Bit rate                                 : 1 509 Kbps
  37. Channel(s)                               : 2 channels
  38. Channel positions                        : Front: L R
  39. Sampling rate                            : 48.0 KHz
  40. Frame rate                               : 93.750 fps (512 spf)
  41. Bit depth                                : 24 bits
  42. Compression mode                         : Lossy
  43. Stream size                              : 1.12 GiB (11%)
  44. Language                                 : English
  45. Default                                  : Yes
  46. Forced                                   : No

  47. Text #1
  48. ID                                       : 3
  49. Format                                   : UTF-8
  50. Codec ID                                 : S_TEXT/UTF8
  51. Codec ID/Info                            : UTF-8 Plain Text
  52. Language                                 : English
  53. Default                                  : No
  54. Forced                                   : No

  55. Text #2
  56. ID                                       : 4
  57. Format                                   : UTF-8
  58. Codec ID                                 : S_TEXT/UTF8
  59. Codec ID/Info                            : UTF-8 Plain Text
  60. Title                                    : SDH
  61. Language                                 : English
  62. Default                                  : No
  63. Forced                                   : No

  64. Menu
  65. 00:00:00.000                             : en:00:00:00.000
  66. 00:01:23.333                             : en:00:01:23.333
  67. 00:05:54.187                             : en:00:05:54.187
  68. 00:10:03.520                             : en:00:10:03.520
  69. 00:15:28.719                             : en:00:15:28.719
  70. 00:18:13.467                             : en:00:18:13.467
  71. 00:20:51.333                             : en:00:20:51.333
  72. 00:24:39.353                             : en:00:24:39.353
  73. 00:27:12.798                             : en:00:27:12.798
  74. 00:32:21.690                             : en:00:32:21.690
  75. 00:37:25.577                             : en:00:37:25.577
  76. 00:40:47.028                             : en:00:40:47.028
  77. 00:44:03.307                             : en:00:44:03.307
  78. 00:46:30.204                             : en:00:46:30.204
  79. 00:49:33.554                             : en:00:49:33.554
  80. 00:54:59.338                             : en:00:54:59.338
  81. 00:59:20.182                             : en:00:59:20.182
  82. 01:03:40.984                             : en:01:03:40.984
  83. 01:08:24.350                             : en:01:08:24.350
  84. 01:11:09.265                             : en:01:11:09.265
  85. 01:15:07.920                             : en:01:15:07.920
  86. 01:19:46.323                             : en:01:19:46.323
  87. 01:23:58.659                             : en:01:23:58.659
  88. 01:27:16.189                             : en:01:27:16.189
  89. 01:29:58.685                             : en:01:29:58.685
  90. 01:34:39.424                             : en:01:34:39.424
  91. 01:37:40.813                             : en:01:37:40.813
  92. 01:41:57.820                             : en:01:41:57.820
  93. 01:43:48.472                             : en:01:43:48.472
  94. 01:45:46.590                             : en:01:45:46.590
复制代码

复制代码

逃狱雪冤/黑道 Dark.Passage.1947.1080p.BluRay.x264-SiNNERS 9.84GB-2.jpg





回复

使用道具 举报

懒得打字嘛,点击右侧快捷回复 【右侧内容,后台自定义】
您需要登录后才可以回帖 登录 | 立即注册

本版积分规则

QQ|Archiver|手机版|小黑屋|中国高清网 |网站地图

GMT+8, 2019-1-22 08:34 , Processed in 0.121132 second(s), 40 queries .

Powered by HDchina X3.4

Copyright 2017-2018©HDchina.All right reserved

返回顶部 联系我们