你所知道的4K资源这里全部都有 4K电影 | 4K视频 | 4K壁纸 | 4K MV 怎么播放4K视频 | 4K电视演示片

教你玩转4K私人与家庭影院存储 NAS组装 | 黑群辉 家庭/影院Nas论坛

4K家庭影院信号源与视频设备知识 4K蓝光高清播放机 - 那个品牌好? 4K投影机论坛 | 4K电视机论坛

手把手教你搭建属于自己的家庭影院 4K家庭影院案例 | 家庭影院音频 4K家庭影院论坛

查看: 26|回复: 0

[剧情片] 君子好逑/马蒂 Marty.1955.1080p.BluRay.x264-SiNNERS 6.56GB

[复制链接]

级别:资源管理组

UID
1
注册时间
2017-10-20
最后登录
2018-11-21
听众
0
收听
0
主题
72220
蓝光币
99015 枚
贡献
142028 点
发表于 2018-11-8 10:50:37 | 显示全部楼层 |阅读模式

君子好逑/马蒂 Marty.1955.1080p.BluRay.x264-SiNNERS 6.56GB-1.jpg
◎译  名 君子好逑 / 马蒂
◎片  名 君子好逑 Marty
◎年  代 1955
◎国  家 美国
◎类  别 剧情 / 恋爱
◎语  言 英语
◎上映日期 1955-04-11(美国)
◎IMDb评分  7.7/10 from 18,332 users
◎IMDb链接  http://www.imdb.com/title/tt0048356/
◎豆瓣评分 7.4/10 from 1064 users
◎豆瓣链接 https://movie.douban.com/subject/1293584/
◎片  长 90分钟 / 94分钟(alternate version)
◎导  演 德尔伯特·曼
◎主  演 欧内斯特·博格宁
      贝琪·布莱尔
      杰里·帕里斯
      乔·马特尔
      凯伦·斯提尔

◎简  介 

  故事发生在富贵的大都会纽约,马蒂(欧内斯特·博格宁 Ernest Borgnine 饰)是生活在其中的一位肉店工人,他没有英俊的表面,没有敷裕的身家,唯一有的,是一颗如金子般闪闪发光的善良的心里。在生活中,居住在中下层穷户聚居的街区的马蒂经常遭到他人的白眼和轻视,对于这一切,马蒂只能冷静忍受。
  一次偶然中,马蒂碰见了名为克拉拉(贝琪·布莱尔 Betsy Blair 饰)的女教师,和马蒂一样,克拉拉由于已经的一段失利的豪情而变得自大又外向,这样的两小我由于类似的际遇而走到了一路。但是,他们之间的鸿沟是庞大的,两人的真爱能否终极跨越这鸿沟,修成正果呢?

◎获奖情况 

  第28届奥斯卡金像奖 (1956)
  最好影片 哈罗德·赫克特
  最好导演 德尔伯特·曼
  最好男配角 欧内斯特·博格宁
  最好男配角(提名) 乔·马特尔
  最好女配角(提名) 贝琪·布莱尔
  最好编剧 帕迪·查耶夫斯基
  黑白片最好摄影(提名) Joseph LaShelle
  黑白片最好艺术指导和布景(提名) Robert Priestley /  Walter M. Simonds /  Ted Haworth

  第8届戛纳电影节 (1955)
  主比赛单元 金棕榈奖 德尔伯特·曼
  OCIC Award 德尔伯特·曼

  • Video
  • ID                                       : 1
  • Format                                   : AVC
  • Format/Info                              : Advanced Video Codec
  • Format profile                           : [email protected]
  • Format settings, CABAC                   : Yes
  • Format settings, ReFrames                : 4 frames
  • Codec ID                                 : V_MPEG4/ISO/AVC
  • Duration                                 : 1h 33mn
  • Bit rate                                 : 8 491 Kbps
  • Width                                    : 1 440 pixels
  • Height                                   : 1 080 pixels
  • Display aspect ratio                     : 4:3
  • Frame rate mode                          : Constant
  • Frame rate                               : 23.976 fps
  • Color space                              : YUV
  • Chroma subsampling                       : 4:2:0
  • Bit depth                                : 8 bits
  • Scan type                                : Progressive
  • Bits/(Pixel*Frame)                       : 0.228
  • Stream size                              : 5.44 GiB (83%)
  • Writing library                          : x264 core 142 r2431 ac76440
  • Encoding settings                        : cabac=1 / ref=4 / deblock=1:0:0 / analyse=0x3:0x113 / me=umh / subme=8 / psy=1 / psy_rd=1.00:0.00 / mixed_ref=1 / me_range=16 / chroma_me=1 / trellis=1 / 8x8dct=1 / cqm=0 / deadzone=21,11 / fast_pskip=0 / chroma_qp_offset=-2 / threads=18 / lookahead_threads=3 / sliced_threads=0 / nr=0 / decimate=1 / interlaced=0 / bluray_compat=0 / constrained_intra=0 / bframes=3 / b_pyramid=2 / b_adapt=1 / b_bias=0 / direct=1 / weightb=1 / open_gop=0 / weightp=2 / keyint=250 / keyint_min=23 / scenecut=40 / intra_refresh=0 / rc_lookahead=40 / rc=2pass / mbtree=1 / bitrate=8491 / ratetol=1.0 / qcomp=0.60 / qpmin=0 / qpmax=69 / qpstep=4 / cplxblur=20.0 / qblur=0.5 / ip_ratio=1.40 / aq=1:1.00
  • Language                                 : English
  • Default                                  : Yes
  • Forced                                   : No
  • Audio
  • ID                                       : 2
  • Format                                   : DTS
  • Format/Info                              : Digital Theater Systems
  • Mode                                     : 16
  • Format settings, Endianness              : Big
  • Codec ID                                 : A_DTS
  • Duration                                 : 1h 33mn
  • Bit rate mode                            : Constant
  • Bit rate                                 : 1 509 Kbps
  • Channel(s)                               : 2 channels
  • Channel positions                        : Front: L R
  • Sampling rate                            : 48.0 KHz
  • Bit depth                                : 24 bits
  • Compression mode                         : Lossy
  • Stream size                              : 1 013 MiB (15%)
  • Title                                    : DTS 2.0
  • Language                                 : English
  • Default                                  : Yes
  • Forced                                   : No
  • Menu
  • 00:00:00.000                             : en:00:00:00.000
  • 00:11:29.898                             : en:00:11:29.898
  • 00:27:46.832                             : en:00:27:46.832
  • 00:37:29.456                             : en:00:37:29.456
  • 00:49:29.800                             : en:00:49:29.800
  • 01:03:17.502                             : en:01:03:17.502
  • 01:11:28.284                             : en:01:11:28.284
  • 01:22:59.057                             : en:01:22:59.057

复制代码

君子好逑/马蒂 Marty.1955.1080p.BluRay.x264-SiNNERS 6.56GB-2.jpg





回复

使用道具 举报

您需要登录后才可以回帖 登录 | 立即注册

本版积分规则

QQ|Archiver|手机版|小黑屋|中国高清网  |网站地图

GMT+8, 2018-11-21 21:48 , Processed in 0.179160 second(s), 42 queries .

Powered by HDchina X3.4

Copyright 2017-2018©HDchina.All right reserved

返回顶部 联系我们