你所知道的4K资源这里全部都有 4K电影 | 4K视频 | 4K壁纸 | 4K MV 怎么播放4K视频 | 4K电视演示片

教你玩转4K私人与家庭影院存储 NAS组装 | 黑群辉 家庭/影院Nas论坛

4K家庭影院信号源与视频设备知识 4K蓝光高清播放机 - 那个品牌好? 4K投影机论坛 | 4K电视机论坛

手把手教你搭建属于自己的家庭影院 4K家庭影院案例 | 家庭影院音频 4K家庭影院论坛

查看: 164|回复: 1

[科幻片] 烈血海底城 Leviathan.1989.REMASTERED.1080p.BluRay.REMUX.AVC.DTS-HD.MA.5.1-FGT 29.62GB

[复制链接]

 成长值: 710

级别:资源管理组

注册时间
2017-10-20
最后登录
2019-3-22
听众
0
收听
0
主题
76497
蓝光币
134743 枚
贡献
146306 点
发表于 2018-11-5 13:56:42 | 显示全部楼层 |阅读模式

烈血海底城 Leviathan.1989.REMASTERED.1080p.BluRay.REMUX.AVC.DTS-HD.MA.5.1-FGT 29.62GB-1.jpg
◎译  名 烈血海底城
◎片  名 烈血海底城 Leviathan
◎年  代 1989
◎国  家 美国 / 意大利
◎类  别 科幻 / 悬疑 / 惊悚 / 可骇 / 冒险
◎语  言 英语
◎上映日期 1989-03-17
◎IMDb评分  5.8/10 from 15,565 users
◎IMDb链接  http://www.imdb.com/title/tt0097737/
◎豆瓣评分 6.3/10 from 488 users
◎豆瓣链接 https://movie.douban.com/subject/1295330/
◎片  长 98 分钟
◎导  演 乔治 P·科斯马图斯
◎主  演 阿曼达·佩斯
      彼得·威勒

◎简  介 

  三海矿物公司正在波罗地海深处停止一项为期90天的矿物开采活动,在海底探测进程中,巴兹(Daniel Stern 饰)因落空和母船的联系,忙打误撞发现一艘海底沉船。船员伊丽莎白(Amanda Pays 饰)受命将巴兹带回,经托马斯博士证实,这是一艘名为“利维坦”的俄罗斯商船。
  船员们在利维坦号上发现了几卷关于船员失落事务的录影带,但对疏于酒精的巴兹等人来说,上好的伏特加更具吸引力。第二天起床,巴兹感应后背不适,8小时后古怪灭亡。由此船员们才意想到,他们极能够将利维坦号上一种奥秘可骇的生物带了返来……


  1. Video
  2. ID                                       : 1
  3. Format                                   : AVC
  4. Format/Info                              : Advanced Video Codec
  5. Format profile                           : [url=/cdn-cgi/l/email-protection][email protected][/url]
  6. Format settings                          : CABAC / 2 Ref Frames
  7. Format settings, CABAC                   : Yes
  8. Format settings, ReFrames                : 2 frames
  9. Format settings, GOP                     : M=1, N=5
  10. Codec ID                                 : V_MPEG4/ISO/AVC
  11. Duration                                 : 1 h 38 min
  12. Bit rate mode                            : Variable
  13. Bit rate                                 : 34.5 Mb/s
  14. Maximum bit rate                         : 38.2 Mb/s
  15. Width                                    : 1 920 pixels
  16. Height                                   : 1 080 pixels
  17. Display aspect ratio                     : 16:9
  18. Frame rate mode                          : Constant
  19. Frame rate                               : 23.976 (24000/1001) FPS
  20. Color space                              : YUV
  21. Chroma subsampling                       : 4:2:0
  22. Bit depth                                : 8 bits
  23. Scan type                                : Progressive
  24. Bits/(Pixel*Frame)                       : 0.694
  25. Stream size                              : 23.6 GiB (80%)
  26. Title                                    : Leviathan.1989.REMASTERED.1080p.BluRay.REMUX.AVC.DTS-HD.MA.5.1-FGT
  27. Language                                 : English
  28. Default                                  : No
  29. Forced                                   : No

  30. Audio #1
  31. ID                                       : 2
  32. Format                                   : DTS XLL
  33. Format/Info                              : Digital Theater Systems
  34. Commercial name                          : DTS-HD Master Audio
  35. Codec ID                                 : A_DTS
  36. Duration                                 : 1 h 38 min
  37. Bit rate mode                            : Variable
  38. Bit rate                                 : 3 627 kb/s
  39. Channel(s)                               : 6 channels
  40. Channel layout                           : C L R Ls Rs LFE
  41. Sampling rate                            : 48.0 kHz
  42. Frame rate                               : 93.750 FPS (512 SPF)
  43. Bit depth                                : 24 bits
  44. Compression mode                         : Lossless
  45. Stream size                              : 2.48 GiB (8%)
  46. Title                                    : Leviathan.1989.REMASTERED.1080p.BluRay.REMUX.AVC.DTS-HD.MA.5.1-FGT
  47. Language                                 : English
  48. Default                                  : Yes
  49. Forced                                   : No

  50. Audio #2
  51. ID                                       : 3
  52. Format                                   : DTS
  53. Format/Info                              : Digital Theater Systems
  54. Codec ID                                 : A_DTS
  55. Duration                                 : 1 h 38 min
  56. Bit rate mode                            : Constant
  57. Bit rate                                 : 1 509 kb/s
  58. Channel(s)                               : 6 channels
  59. Channel layout                           : C L R Ls Rs LFE
  60. Sampling rate                            : 48.0 kHz
  61. Frame rate                               : 93.750 FPS (512 SPF)
  62. Bit depth                                : 24 bits
  63. Compression mode                         : Lossy
  64. Stream size                              : 1.03 GiB (3%)
  65. Title                                    : Leviathan.1989.REMASTERED.1080p.BluRay.REMUX.AVC.DTS-HD.MA.5.1-FGT
  66. Language                                 : English
  67. Default                                  : No
  68. Forced                                   : No

  69. Audio #3
  70. ID                                       : 4
  71. Format                                   : DTS XLL
  72. Format/Info                              : Digital Theater Systems
  73. Commercial name                          : DTS-HD Master Audio
  74. Codec ID                                 : A_DTS
  75. Duration                                 : 1 h 38 min
  76. Bit rate mode                            : Variable
  77. Bit rate                                 : 2 109 kb/s
  78. Channel(s)                               : 2 channels
  79. Channel layout                           : L R
  80. Sampling rate                            : 48.0 kHz
  81. Frame rate                               : 93.750 FPS (512 SPF)
  82. Bit depth                                : 24 bits
  83. Compression mode                         : Lossless
  84. Stream size                              : 1.44 GiB (5%)
  85. Title                                    : Leviathan.1989.REMASTERED.1080p.BluRay.REMUX.AVC.DTS-HD.MA.5.1-FGT
  86. Language                                 : English
  87. Default                                  : No
  88. Forced                                   : No

  89. Audio #4
  90. ID                                       : 5
  91. Format                                   : DTS
  92. Format/Info                              : Digital Theater Systems
  93. Codec ID                                 : A_DTS
  94. Duration                                 : 1 h 38 min
  95. Bit rate mode                            : Constant
  96. Bit rate                                 : 1 509 kb/s
  97. Channel(s)                               : 2 channels
  98. Channel layout                           : L R
  99. Sampling rate                            : 48.0 kHz
  100. Frame rate                               : 93.750 FPS (512 SPF)
  101. Bit depth                                : 24 bits
  102. Compression mode                         : Lossy
  103. Stream size                              : 1.03 GiB (3%)
  104. Title                                    : Leviathan.1989.REMASTERED.1080p.BluRay.REMUX.AVC.DTS-HD.MA.5.1-FGT
  105. Language                                 : English
  106. Default                                  : No
  107. Forced                                   : No

  108. Text
  109. ID                                       : 6
  110. Format                                   : PGS
  111. Muxing mode                              : zlib
  112. Codec ID                                 : S_HDMV/PGS
  113. Codec ID/Info                            : Picture based subtitle format used on BDs/HD-DVDs
  114. Duration                                 : 1 h 30 min
  115. Bit rate                                 : 34.7 kb/s
  116. Count of elements                        : 2064
  117. Stream size                              : 22.6 MiB (0%)
  118. Title                                    : English-PGS
  119. Language                                 : English
  120. Default                                  : Yes
  121. Forced                                   : No

  122. Menu
  123. 00:00:00.000                             : en:Chapter 01
  124. 00:09:03.417                             : en:Chapter 02
  125. 00:20:53.001                             : en:Chapter 03
  126. 00:30:07.013                             : en:Chapter 04
  127. 00:37:13.606                             : en:Chapter 05
  128. 00:42:23.624                             : en:Chapter 06
  129. 00:47:19.127                             : en:Chapter 07
  130. 00:55:52.682                             : en:Chapter 08
  131. 01:03:30.723                             : en:Chapter 09
  132. 01:09:26.036                             : en:Chapter 10
  133. 01:17:29.811                             : en:Chapter 11
  134. 01:29:53.346                             : en:Chapter 12
复制代码

复制代码

烈血海底城 Leviathan.1989.REMASTERED.1080p.BluRay.REMUX.AVC.DTS-HD.MA.5.1-FGT 29.62GB-2.png 烈血海底城 Leviathan.1989.REMASTERED.1080p.BluRay.REMUX.AVC.DTS-HD.MA.5.1-FGT 29.62GB-3.png 烈血海底城 Leviathan.1989.REMASTERED.1080p.BluRay.REMUX.AVC.DTS-HD.MA.5.1-FGT 29.62GB-4.png





回复

使用道具 举报

级别:专业龙套 Lv.4

注册时间
2018-11-3
最后登录
2019-3-21
听众
1
收听
0
主题
0
蓝光币
692 枚
贡献
0 点
QQ
发表于 2018-11-5 15:37:46 | 显示全部楼层
楼主写得太好了!我喜欢!送花给你吧!
回复

使用道具 举报

懒得打字嘛,点击右侧快捷回复 【右侧内容,后台自定义】
您需要登录后才可以回帖 登录 | 立即注册

本版积分规则

QQ|Archiver|手机版|小黑屋|中国高清网 |网站地图

GMT+8, 2019-3-22 10:20 , Processed in 0.233974 second(s), 43 queries .

Powered by HDchina X3.4

Copyright 2017-2018©HDchina.All right reserved

返回顶部 联系我们