你所知道的4K资源这里全部都有 4K电影 | 4K视频 | 4K壁纸 | 4K MV 怎么播放4K视频 | 4K电视演示片

教你玩转4K私人与家庭影院存储 NAS组装 | 黑群辉 家庭/影院Nas论坛

4K家庭影院信号源与视频设备知识 4K蓝光高清播放机 - 那个品牌好? 4K投影机论坛 | 4K电视机论坛

手把手教你搭建属于自己的家庭影院 4K家庭影院案例 | 家庭影院音频 4K家庭影院论坛

查看: 101|回复: 4

[科幻片] 平行世界之门/入口 The.Gateway.2018.1080p.BluRay.REMUX.AVC.DTS-HD.MA.5.1-FGT 21.41GB

[复制链接]

 成长值: 130

级别:资源管理组

UID
1
注册时间
2017-10-20
最后登录
2019-1-22
听众
0
收听
0
主题
73996
蓝光币
116842 枚
贡献
143805 点
发表于 2018-10-29 13:42:41 | 显示全部楼层 |阅读模式

平行天下之门/进口 The.Gateway.2018.1080p.BluRay.REMUX.AVC.DTS-HD.MA.5.1-FGT 21.41GB-1.jpg
◎译  名 平行天下之门 / 进口 / Alpha Gateway / Love You Twice
◎片  名 平行天下之门 The Gateway
◎年  代 2018
◎国  家 澳大利亚
◎类  别 科幻
◎语  言 英语
◎上映日期 2018-02-10(波士顿科幻电影节) / 2018-05-03(澳大利亚)
◎IMDb评分  5.6/10 from 3,725 users
◎IMDb链接  http://www.imdb.com/title/tt6179746/
◎豆瓣评分 5.5/10 from 923 users
◎豆瓣链接 https://movie.douban.com/subject/30148558/
◎片  长 90分钟
◎导  演 约翰 V 索托
◎主  演 杰奎琳·麦根斯
      麦尔斯·珀拉德
      海莉·麦克尔希尼
      本·莫特利
      香农·贝里
      特洛伊·考沃德
      亚当·T·帕金斯
      瑞安·帕尼萨
      约翰·麦克菲尔森
      贾格·潘努
      雪莉·图希
      史蒂夫·伯里奇

◎简  介 

  澳大利亚科幻片,一位在车祸中损失丈夫身份的粒子物理学家走向平行天下,再次找到他,给她的家人带来了可怕的结果。


  1. Video
  2. ID                                       : 1
  3. Format                                   : AVC
  4. Format/Info                              : Advanced Video Codec
  5. Format profile                           : [url=/cdn-cgi/l/email-protection][email protected][/url]
  6. Format settings                          : CABAC / 4 Ref Frames
  7. Format settings, CABAC                   : Yes
  8. Format settings, ReFrames                : 4 frames
  9. Codec ID                                 : V_MPEG4/ISO/AVC
  10. Duration                                 : 1 h 30 min
  11. Bit rate mode                            : Variable
  12. Bit rate                                 : 28.8 Mb/s
  13. Maximum bit rate                         : 38.0 Mb/s
  14. Width                                    : 1 920 pixels
  15. Height                                   : 1 080 pixels
  16. Display aspect ratio                     : 16:9
  17. Frame rate mode                          : Constant
  18. Frame rate                               : 23.976 (24000/1001) FPS
  19. Color space                              : YUV
  20. Chroma subsampling                       : 4:2:0
  21. Bit depth                                : 8 bits
  22. Scan type                                : Progressive
  23. Bits/(Pixel*Frame)                       : 0.579
  24. Stream size                              : 18.2 GiB (85%)
  25. Title                                    : The.Gateway.2018.1080p.BluRay.REMUX.AVC.DTS-HD.MA.5.1-FGT
  26. Language                                 : English
  27. Default                                  : No
  28. Forced                                   : No

  29. Audio #1
  30. ID                                       : 2
  31. Format                                   : DTS XLL
  32. Format/Info                              : Digital Theater Systems
  33. Commercial name                          : DTS-HD Master Audio
  34. Codec ID                                 : A_DTS
  35. Duration                                 : 1 h 30 min
  36. Bit rate mode                            : Variable
  37. Bit rate                                 : 3 574 kb/s
  38. Channel(s)                               : 6 channels
  39. Channel layout                           : C L R Ls Rs LFE
  40. Sampling rate                            : 48.0 kHz
  41. Frame rate                               : 93.750 FPS (512 SPF)
  42. Bit depth                                : 24 bits
  43. Compression mode                         : Lossless
  44. Stream size                              : 2.26 GiB (11%)
  45. Title                                    : The.Gateway.2018.1080p.BluRay.REMUX.AVC.DTS-HD.MA.5.1-FGT
  46. Language                                 : English
  47. Default                                  : Yes
  48. Forced                                   : No

  49. Audio #2
  50. ID                                       : 3
  51. Format                                   : DTS
  52. Format/Info                              : Digital Theater Systems
  53. Codec ID                                 : A_DTS
  54. Duration                                 : 1 h 30 min
  55. Bit rate mode                            : Constant
  56. Bit rate                                 : 1 509 kb/s
  57. Channel(s)                               : 6 channels
  58. Channel layout                           : C L R Ls Rs LFE
  59. Sampling rate                            : 48.0 kHz
  60. Frame rate                               : 93.750 FPS (512 SPF)
  61. Bit depth                                : 24 bits
  62. Compression mode                         : Lossy
  63. Stream size                              : 976 MiB (4%)
  64. Title                                    : The.Gateway.2018.1080p.BluRay.REMUX.AVC.DTS-HD.MA.5.1-FGT
  65. Language                                 : English
  66. Default                                  : No
  67. Forced                                   : No

  68. Text
  69. ID                                       : 4
  70. Format                                   : PGS
  71. Muxing mode                              : zlib
  72. Codec ID                                 : S_HDMV/PGS
  73. Codec ID/Info                            : Picture based subtitle format used on BDs/HD-DVDs
  74. Duration                                 : 1 h 23 min
  75. Bit rate                                 : 60.3 kb/s
  76. Count of elements                        : 1866
  77. Stream size                              : 35.9 MiB (0%)
  78. Title                                    : English-PGS
  79. Language                                 : English
  80. Default                                  : Yes
  81. Forced                                   : No

  82. Menu
  83. 00:00:00.000                             : en:Chapter 01
  84. 00:09:16.097                             : en:Chapter 02
  85. 00:18:23.102                             : en:Chapter 03
  86. 00:29:39.110                             : en:Chapter 04
  87. 00:42:08.984                             : en:Chapter 05
  88. 00:52:38.446                             : en:Chapter 06
  89. 01:05:34.764                             : en:Chapter 07
  90. 01:14:02.855                             : en:Chapter 08
  91. 01:22:12.427                             : en:Chapter 09
  92. 01:30:26.879                             : en:Chapter 10
复制代码

复制代码

平行天下之门/进口 The.Gateway.2018.1080p.BluRay.REMUX.AVC.DTS-HD.MA.5.1-FGT 21.41GB-2.png 平行天下之门/进口 The.Gateway.2018.1080p.BluRay.REMUX.AVC.DTS-HD.MA.5.1-FGT 21.41GB-3.png 平行天下之门/进口 The.Gateway.2018.1080p.BluRay.REMUX.AVC.DTS-HD.MA.5.1-FGT 21.41GB-4.png




回复

使用道具 举报

级别:荣升主角 Lv.5

UID
3152
注册时间
2018-4-26
最后登录
2019-1-22
听众
3
收听
0
主题
0
蓝光币
382 枚
贡献
0 点
QQ
发表于 2018-10-29 15:38:50 | 显示全部楼层
到底有没有平行世界啊
回复

使用道具 举报

级别:群众演员 Lv.3

UID
8117
注册时间
2018-10-9
最后登录
2019-1-19
听众
3
收听
0
主题
0
蓝光币
233 枚
贡献
0 点
发表于 2018-10-31 12:45:39 | 显示全部楼层
谢谢楼主分享
回复

使用道具 举报

级别:专业龙套 Lv.4

UID
4064
注册时间
2018-5-27
最后登录
2019-1-22
听众
3
收听
0
主题
0
蓝光币
2 枚
贡献
0 点
发表于 2018-11-5 09:00:53 | 显示全部楼层
感谢分享!
回复

使用道具 举报

级别:普通观众 Lv.2

UID
13166
注册时间
2018-12-28
最后登录
2019-1-22
听众
0
收听
0
主题
0
蓝光币
2 枚
贡献
0 点
QQ
发表于 2019-1-12 14:16:46 | 显示全部楼层
谢谢楼主分享
回复

使用道具 举报

懒得打字嘛,点击右侧快捷回复 【右侧内容,后台自定义】
您需要登录后才可以回帖 登录 | 立即注册

本版积分规则

QQ|Archiver|手机版|小黑屋|中国高清网 |网站地图

GMT+8, 2019-1-23 00:40 , Processed in 0.132999 second(s), 41 queries .

Powered by HDchina X3.4

Copyright 2017-2018©HDchina.All right reserved

返回顶部 联系我们