你所知道的4K资源这里全部都有 4K电影 | 4K视频 | 4K壁纸 | 4K MV 怎么播放4K视频 | 4K电视演示片

教你玩转4K私人与家庭影院存储 NAS组装 | 黑群辉 家庭/影院Nas论坛

4K家庭影院信号源与视频设备知识 4K蓝光高清播放机 - 那个品牌好? 4K投影机论坛 | 4K电视机论坛

手把手教你搭建属于自己的家庭影院 4K家庭影院案例 | 家庭影院音频 4K家庭影院论坛

查看: 46|回复: 2

[剧情片] 不义之财 Easy.Money.2010.720p.BluRay.x264-USURY 5.46GB

[复制链接]

级别:资源管理组

UID
1
注册时间
2017-10-20
最后登录
2018-11-21
听众
0
收听
0
主题
72220
蓝光币
99015 枚
贡献
142028 点
发表于 2018-10-24 19:10:10 | 显示全部楼层 |阅读模式

6 O7 f9 y7 ~- |' S: k$ U" ~$ g( t 不义之财 Easy.Money.2010.720p.BluRay.x264-USURY 5.46GB-1.jpg
# _* P1 G! ]; p6 S◎译  名 不义之财 / Easy Money
& W: A) ^3 S- F9 |" q) ]6 t0 L◎片  名 不义之财 Snabba Cash9 c1 q, U: s/ ~
◎年  代 2010
( W8 [5 o+ J. J/ D2 V0 ~3 T◎国  家 瑞典
# t, _2 k  w7 Y& s$ U; Z◎类  别 剧情 / 惊悚 / 犯罪/ q2 G+ i7 W- |) S: U/ F5 I' V/ U
◎语  言 瑞典语 / Serbian / 西班牙语 / 英语% ~. W5 o( F" M3 e" v/ z; L' q
◎上映日期 2010-01-15, X! u0 ~3 R$ K( d7 c: @, p
◎IMDb评分  6.7/10 from 15,262 users
. g  x+ l2 Z' x% H. h( S◎IMDb链接  http://www.imdb.com/title/tt1291652/' \$ S( s8 G  z0 z) X8 W& I: o
◎豆瓣评分 6.7/10 from 684 users4 X) X6 ^  B3 C
◎豆瓣链接 https://movie.douban.com/subject/4259560/# `/ D# K$ q' G
◎片  长 125分钟5 O  h) O! _# s; X: a( C- p
◎导  演 丹尼尔·伊斯皮诺萨
  y( i$ f# f+ e7 S# \. B" Y1 O◎主  演 乔尔·金纳曼2 l! t6 u4 |/ Q, H. X" q
      Lisa Henni
  ^* _4 E# g. R0 f      法瑞斯·法瑞斯
7 S! B3 `% w! \5 v' a! o1 K1 y      Dejan Cukic- X) ]! a* {/ F2 \7 r
      马蒂亚斯·瓦雷拉
- j/ V. x9 }- h" ]! B% a      Dragomir Mrsic
1 N  R! ]# _; e, |$ }      J?rgen Berthage3 |' l* U1 l" n1 m" ]
      Alexander Stocks
" E/ j  T/ c3 d+ r' Z
( Z, F) i! D' j, _  B◎简  介 1 w8 |4 U* u- I# q4 a, H$ t$ m. i

* \/ r7 ?/ X$ q* N8 t  报告三个生活在斯德哥尔摩的边沿人物:一个从小就从智利移民到瑞典处置毒品买卖,在斯德哥尔摩市没有人比他更有人脉,另一小我则过着两重的生活,一边跟有钱有势的朋友交往一边销售毒品,还有一个是南斯拉夫帮派下的得力助手,主如果帮帮派老迈收取俱乐部跟酒吧的庇护费。当这些人处置毒品买卖或犯罪行为的进程中,由于钱太轻易赚到,即使想过要回去那领实在在薪水普经过活,能够社会没法接管他们,又大概那轻易钱引诱太大,成果常常总是又回到之前犯罪生活。
. L9 ~- }/ K/ W. s5 C
4 O: i1 V8 S& t2 P1 l
  • Video
  • ID                                       : 1
  • Format                                   : AVC
  • Format/Info                              : Advanced Video Codec
  • Format profile                           : [email protected]
  • Format settings                          : CABAC / 5 Ref Frames
  • Format settings, CABAC                   : Yes
  • Format settings, ReFrames                : 5 frames
  • Codec ID                                 : V_MPEG4/ISO/AVC
  • Duration                                 : 2 h 4 min
  • Bit rate                                 : 4 758 kb/s
  • Width                                    : 1 280 pixels
  • Height                                   : 544 pixels
  • Display aspect ratio                     : 2.35:1
  • Frame rate mode                          : Constant
  • Frame rate                               : 24.000 FPS
  • Color space                              : YUV
  • Chroma subsampling                       : 4:2:0
  • Bit depth                                : 8 bits
  • Scan type                                : Progressive
  • Bits/(Pixel*Frame)                       : 0.285
  • Stream size                              : 4.15 GiB (76%)
  • Writing library                          : x264 core 157 r2935 545de2f
  • Encoding settings                        : cabac=1 / ref=5 / deblock=1:-3:-3 / analyse=0x3:0x133 / me=umh / subme=9 / psy=1 / psy_rd=1.00:0.00 / mixed_ref=1 / me_range=16 / chroma_me=1 / trellis=2 / 8x8dct=1 / cqm=0 / deadzone=21,11 / fast_pskip=0 / chroma_qp_offset=-2 / threads=12 / lookahead_threads=1 / sliced_threads=0 / nr=0 / decimate=1 / interlaced=0 / bluray_compat=0 / constrained_intra=0 / bframes=3 / b_pyramid=2 / b_adapt=1 / b_bias=0 / direct=3 / weightb=1 / open_gop=0 / weightp=2 / keyint=240 / keyint_min=24 / scenecut=40 / intra_refresh=0 / rc_lookahead=50 / rc=2pass / mbtree=1 / bitrate=4758 / ratetol=1.0 / qcomp=0.60 / qpmin=0 / qpmax=69 / qpstep=4 / cplxblur=20.0 / qblur=0.5 / ip_ratio=1.40 / aq=1:1.00
  • Language                                 : English
  • Default                                  : Yes
  • Forced                                   : No
  • Audio
  • ID                                       : 2
  • Format                                   : DTS
  • Format/Info                              : Digital Theater Systems
  • Codec ID                                 : A_DTS
  • Duration                                 : 2 h 4 min
  • Bit rate mode                            : Constant
  • Bit rate                                 : 1 509 kb/s
  • Channel(s)                               : 6 channels
  • Channel layout                           : C L R Ls Rs LFE
  • Sampling rate                            : 48.0 kHz
  • Frame rate                               : 93.750 FPS (512 SPF)
  • Bit depth                                : 24 bits
  • Compression mode                         : Lossy
  • Stream size                              : 1.32 GiB (24%)
  • Language                                 : Swedish
  • Default                                  : Yes
  • Forced                                   : No
  • Text #1
  • ID                                       : 3
  • Format                                   : UTF-8
  • Codec ID                                 : S_TEXT/UTF8
  • Codec ID/Info                            : UTF-8 Plain Text
  • Duration                                 : 1 h 57 min
  • Bit rate                                 : 37 b/s
  • Count of elements                        : 944
  • Stream size                              : 32.4 KiB (0%)
  • Title                                    : English
  • Language                                 : English
  • Default                                  : Yes
  • Forced                                   : Yes
  • Text #2
  • ID                                       : 4
  • Format                                   : UTF-8
  • Codec ID                                 : S_TEXT/UTF8
  • Codec ID/Info                            : UTF-8 Plain Text
  • Duration                                 : 1 h 58 min
  • Bit rate                                 : 42 b/s
  • Count of elements                        : 1113
  • Stream size                              : 36.4 KiB (0%)
  • Title                                    : English SDH
  • Language                                 : English
  • Default                                  : No
  • Forced                                   : No
  • Menu
  • 00:00:00.000                             : en:00:00:00.000
  • 00:09:10.167                             : en:00:09:10.167
  • 00:20:44.750                             : en:00:20:44.750
  • 00:30:03.708                             : en:00:30:03.708
  • 00:40:55.792                             : en:00:40:55.792
  • 00:50:31.000                             : en:00:50:31.000
  • 01:01:05.042                             : en:01:01:05.042
  • 01:10:36.292                             : en:01:10:36.292
  • 01:19:35.375                             : en:01:19:35.375
  • 01:29:54.375                             : en:01:29:54.375
  • 01:41:24.208                             : en:01:41:24.208
  • 01:50:54.500                             : en:01:50:54.500: \+ A5 V. @6 o3 P% S5 Z$ D" o* k/ }. k

& @4 U6 @5 r2 X3 x复制代码, j: ?( Y2 v5 X! T! S9 f2 l0 k6 r* f

3 p) E; n' Z" H3 v 不义之财 Easy.Money.2010.720p.BluRay.x264-USURY 5.46GB-2.jpg
9 o* {1 n( Z0 [, v8 X2 W8 E& v( Y4 j: O. j+ e

1 `1 x  O5 ^1 o7 O, b9 w) q4 l1 q4 I5 J6 I3 b
; q. b3 \0 S# B$ N; z
回复

使用道具 举报

级别:普通观众 Lv.2

UID
8897
注册时间
2018-10-24
最后登录
2018-11-20
听众
2
收听
0
主题
0
蓝光币
24 枚
贡献
0 点
发表于 2018-10-24 21:30:10 | 显示全部楼层
感谢楼主分享精彩电影!
回复

使用道具 举报

级别:专业龙套 Lv.4

UID
6628
注册时间
2018-9-3
最后登录
2018-11-20
听众
3
收听
0
主题
24
蓝光币
402 枚
贡献
43 点
发表于 2018-11-8 23:47:41 | 显示全部楼层
谢谢楼主分享
回复

使用道具 举报

您需要登录后才可以回帖 登录 | 立即注册

本版积分规则

QQ|Archiver|手机版|小黑屋|中国高清网  |网站地图

GMT+8, 2018-11-21 22:20 , Processed in 0.193418 second(s), 41 queries .

Powered by HDchina X3.4

Copyright 2017-2018©HDchina.All right reserved

返回顶部 联系我们