你所知道的4K资源这里全部都有 4K电影 | 4K视频 | 4K壁纸 | 4K MV 怎么播放4K视频 | 4K电视演示片

教你玩转4K私人与家庭影院存储 NAS组装 | 黑群辉 家庭/影院Nas论坛

4K家庭影院信号源与视频设备知识 4K蓝光高清播放机 - 那个品牌好? 4K投影机论坛 | 4K电视机论坛

手把手教你搭建属于自己的家庭影院 4K家庭影院案例 | 家庭影院音频 4K家庭影院论坛

查看: 135|回复: 2

[剧情片] 不义之财 Easy.Money.2010.720p.BluRay.x264-USURY 5.46GB

[复制链接]

 成长值: 1040

级别:资源管理组

注册时间
2017-10-20
最后登录
2019-4-23
听众
0
收听
0
主题
76979
蓝光币
8529 枚
贡献
1287 点
发表于 2018-10-24 19:10:10 | 显示全部楼层 |阅读模式

  U3 i  e$ |5 V6 S7 m+ E8 ? 不义之财 Easy.Money.2010.720p.BluRay.x264-USURY 5.46GB-1.jpg 2 D1 |3 r6 O: @- X4 e, O
◎译  名 不义之财 / Easy Money
$ \. Z+ O4 _1 [  n7 w◎片  名 不义之财 Snabba Cash
! [" M# S' t5 X, C◎年  代 2010
0 E9 L. A8 x2 s% d6 F/ l: ~# t' D7 G4 s◎国  家 瑞典
1 ]2 G5 _  E' V) E- K◎类  别 剧情 / 惊悚 / 犯罪" W* R- {& ]8 S$ P" q9 L  N
◎语  言 瑞典语 / Serbian / 西班牙语 / 英语
* \- Q1 l+ e# h) O# V. F6 |◎上映日期 2010-01-15
6 ?6 G# l( p7 `9 f◎IMDb评分  6.7/10 from 15,262 users
( Z% P% I1 |) R2 t. \  Q◎IMDb链接  http://www.imdb.com/title/tt1291652/) i! ?2 U  F2 k/ B, i# `3 D8 |
◎豆瓣评分 6.7/10 from 684 users% C" d% l- n  `$ N3 v9 C7 X
◎豆瓣链接 https://movie.douban.com/subject/4259560/( C: u2 k9 R& n8 D& g. }( R
◎片  长 125分钟3 p# N5 N/ O3 h
◎导  演 丹尼尔·伊斯皮诺萨% `, O7 ^5 T9 L) J+ S
◎主  演 乔尔·金纳曼
5 |, j6 K  C6 \. c. M      Lisa Henni5 ~2 K0 q6 C& c$ c# I
      法瑞斯·法瑞斯7 E! [( w, c9 e8 O
      Dejan Cukic
1 |/ b5 V6 p7 }+ d" T; i$ F* b% O      马蒂亚斯·瓦雷拉3 N4 x) G$ }/ A0 [
      Dragomir Mrsic! l* K: N% W  A! @0 X
      J?rgen Berthage: ^9 M7 r; }! P, n- g2 k% f( P2 D4 ]7 p* Z
      Alexander Stocks
* @4 ~3 q& x# [6 c; _9 l& Y9 ^- D  p
◎简  介 
/ T5 Z, t" T; ~7 Z; c/ v/ {2 n% s. v% Q1 d8 v' `
  报告三个生活在斯德哥尔摩的边沿人物:一个从小就从智利移民到瑞典处置毒品买卖,在斯德哥尔摩市没有人比他更有人脉,另一小我则过着两重的生活,一边跟有钱有势的朋友交往一边销售毒品,还有一个是南斯拉夫帮派下的得力助手,主如果帮帮派老迈收取俱乐部跟酒吧的庇护费。当这些人处置毒品买卖或犯罪行为的进程中,由于钱太轻易赚到,即使想过要回去那领实在在薪水普经过活,能够社会没法接管他们,又大概那轻易钱引诱太大,成果常常总是又回到之前犯罪生活。
# W: U2 ^4 @* k2 C* h; w  X$ y" r0 l8 ~) g; x

  1. 6 X. x9 I! ]$ n$ ?
  2. Video
    % B. c1 M- ~. L; X: K
  3. ID                                       : 1$ L7 v- f; G2 Z% c8 ?2 G$ U
  4. Format                                   : AVC$ X: K! [. F8 n6 v
  5. Format/Info                              : Advanced Video Codec
    1 f  s4 M- m5 ^# L
  6. Format profile                           : [url=/cdn-cgi/l/email-protection][email protected][/url]2 W1 Z8 u0 G: o4 @9 h& b
  7. Format settings                          : CABAC / 5 Ref Frames
    ' [# y3 L! \: F" P9 D' ?7 M, p
  8. Format settings, CABAC                   : Yes6 b4 u1 V, C6 }8 y2 O9 b  k
  9. Format settings, ReFrames                : 5 frames
    , T& n1 v+ n& l/ o
  10. Codec ID                                 : V_MPEG4/ISO/AVC
    ( m. F0 c8 c7 W  F$ s  H
  11. Duration                                 : 2 h 4 min, v2 ^" B- @2 ~' C5 ]7 \* T7 C
  12. Bit rate                                 : 4 758 kb/s! U$ e, f- i; @  S
  13. Width                                    : 1 280 pixels
    4 n. }/ M6 _4 i2 |/ x: n4 ]* x
  14. Height                                   : 544 pixels, [- i, E- l. b6 F" T4 Z# U; Q
  15. Display aspect ratio                     : 2.35:1& R* }7 i0 Z. m1 K; ~$ ]& o
  16. Frame rate mode                          : Constant8 i' r# z7 q" P, H* k. h  z
  17. Frame rate                               : 24.000 FPS. G$ k% O- G: O$ S  [/ l1 g8 c' y
  18. Color space                              : YUV1 {- N# x$ X! L" o* C5 o0 j
  19. Chroma subsampling                       : 4:2:0
    % ^2 y! r' I) T6 R" P0 f
  20. Bit depth                                : 8 bits  V" q) J8 I' H8 b) y
  21. Scan type                                : Progressive( a0 m! i! e, a* Z6 A# C
  22. Bits/(Pixel*Frame)                       : 0.285
    7 B" o( G: |: O! ~1 t. W
  23. Stream size                              : 4.15 GiB (76%)
    0 a& |2 h8 a4 N8 w  U# P1 ]
  24. Writing library                          : x264 core 157 r2935 545de2f9 m3 W. ^5 Y! q5 j$ ^: Y3 E' k
  25. Encoding settings                        : cabac=1 / ref=5 / deblock=1:-3:-3 / analyse=0x3:0x133 / me=umh / subme=9 / psy=1 / psy_rd=1.00:0.00 / mixed_ref=1 / me_range=16 / chroma_me=1 / trellis=2 / 8x8dct=1 / cqm=0 / deadzone=21,11 / fast_pskip=0 / chroma_qp_offset=-2 / threads=12 / lookahead_threads=1 / sliced_threads=0 / nr=0 / decimate=1 / interlaced=0 / bluray_compat=0 / constrained_intra=0 / bframes=3 / b_pyramid=2 / b_adapt=1 / b_bias=0 / direct=3 / weightb=1 / open_gop=0 / weightp=2 / keyint=240 / keyint_min=24 / scenecut=40 / intra_refresh=0 / rc_lookahead=50 / rc=2pass / mbtree=1 / bitrate=4758 / ratetol=1.0 / qcomp=0.60 / qpmin=0 / qpmax=69 / qpstep=4 / cplxblur=20.0 / qblur=0.5 / ip_ratio=1.40 / aq=1:1.006 j3 `4 A+ b  R
  26. Language                                 : English
    & D  O1 N; D) W$ b0 B4 B
  27. Default                                  : Yes
    3 m5 x/ D2 m1 o" ^( U' w$ h* _
  28. Forced                                   : No
    # c. v" N' b/ I

  29. ! i% g4 o  N' Y1 t1 Z7 S5 z  f
  30. Audio
    ) p' g- B2 y: T
  31. ID                                       : 2
    7 u0 E' |3 B0 g
  32. Format                                   : DTS% e" r5 d$ T; H" `9 S8 @
  33. Format/Info                              : Digital Theater Systems9 e/ }! \, x9 Y% z, W3 B- `6 K
  34. Codec ID                                 : A_DTS# m, Q' E, S# }' s( \* u
  35. Duration                                 : 2 h 4 min( }* s3 `3 ~, m# L% F3 A
  36. Bit rate mode                            : Constant1 h: }4 b: F% F* w
  37. Bit rate                                 : 1 509 kb/s
    # [3 S. g: h! r: ?+ }5 |" \1 M
  38. Channel(s)                               : 6 channels
    $ X& p1 Q; F' b2 F
  39. Channel layout                           : C L R Ls Rs LFE1 V: w. _, b$ E% }9 ?3 P
  40. Sampling rate                            : 48.0 kHz
    & ]0 s% {$ x2 @' X5 I
  41. Frame rate                               : 93.750 FPS (512 SPF)4 ?0 m. `2 o1 G( l5 R
  42. Bit depth                                : 24 bits
    9 e- F* g' Q5 u$ x  K1 W: k
  43. Compression mode                         : Lossy
    7 u4 w. S; ]- i$ p
  44. Stream size                              : 1.32 GiB (24%)5 p) [8 H6 [4 x$ Q6 V1 p
  45. Language                                 : Swedish2 K) n- W% c6 _0 g* d
  46. Default                                  : Yes' t% P5 W6 S( x8 `7 I# v* D; A
  47. Forced                                   : No3 D2 p5 G, l( l1 Z! ^# Y2 I7 w
  48. $ {: |; G( N! S1 N: L& B- v9 s
  49. Text #19 J  Y) y0 t  F
  50. ID                                       : 35 M& @4 [4 y' Y: U
  51. Format                                   : UTF-8
    $ o9 q0 u) v- L. ?
  52. Codec ID                                 : S_TEXT/UTF83 {* y* Z- @" |8 C% V
  53. Codec ID/Info                            : UTF-8 Plain Text4 H% c/ A" g* H7 E  l
  54. Duration                                 : 1 h 57 min6 x; [" \- L1 }% g0 m3 n& l- F9 l  |
  55. Bit rate                                 : 37 b/s* s9 j3 h+ Q0 D# m
  56. Count of elements                        : 944  H4 Q+ y- F: L' p
  57. Stream size                              : 32.4 KiB (0%)
    . Q. e4 Q- f8 p  l5 Z0 W; C
  58. Title                                    : English
    $ l' h" P3 K1 R6 |" \  I! D
  59. Language                                 : English
    5 u4 b, U  @7 M8 o' U8 ~) y
  60. Default                                  : Yes% g$ j+ y3 Q5 D- l+ s% M3 h+ l
  61. Forced                                   : Yes, Q3 S0 n" z3 A% U. W6 k) U
  62. / e( b. H; R* m9 e; X+ i
  63. Text #2' R0 Y8 I0 o  W) I: i8 k
  64. ID                                       : 4" m1 X0 W! G# s9 n
  65. Format                                   : UTF-86 A! B. J% X2 e$ B
  66. Codec ID                                 : S_TEXT/UTF8
    " v) |8 {" c$ o
  67. Codec ID/Info                            : UTF-8 Plain Text
    & ~* u8 Z! U1 ]5 U; q9 m
  68. Duration                                 : 1 h 58 min* t  a2 Q3 {& ^: X6 ~6 g
  69. Bit rate                                 : 42 b/s" u* x$ X0 A. N2 m' Z  W7 x9 I& X
  70. Count of elements                        : 1113# _% m- {3 _0 N1 k
  71. Stream size                              : 36.4 KiB (0%)
    ; @- _; e% Y+ x1 n
  72. Title                                    : English SDH% e& L' }7 w9 k1 n
  73. Language                                 : English
    ( U( w$ u6 q" ~% z# w% i: f
  74. Default                                  : No- B* D% t0 l6 R8 p. k
  75. Forced                                   : No1 H" m/ _, i# a! F

  76. 2 @( A; y( G7 j
  77. Menu6 v; K) ^& G* p
  78. 00:00:00.000                             : en:00:00:00.0001 W; d# Z' `3 L: z0 \
  79. 00:09:10.167                             : en:00:09:10.167
    9 [& L- w( c1 x4 c- P
  80. 00:20:44.750                             : en:00:20:44.750$ h9 B( |+ p! i) X1 ?& j8 ]  G
  81. 00:30:03.708                             : en:00:30:03.708
      z8 |  ]5 y( m2 x" G4 B
  82. 00:40:55.792                             : en:00:40:55.792
    $ [+ G7 x$ Z7 M- y( w/ e
  83. 00:50:31.000                             : en:00:50:31.000' j( k$ ^/ a" q, P2 S
  84. 01:01:05.042                             : en:01:01:05.0422 ^2 y2 s/ u% o9 n: Q: j" u- f
  85. 01:10:36.292                             : en:01:10:36.292
    7 t# c! j5 n* i7 ~" U% y
  86. 01:19:35.375                             : en:01:19:35.3758 y4 c) E& \1 g9 W& w! R* S# V
  87. 01:29:54.375                             : en:01:29:54.3758 H. b. _- A8 d( @/ Q, W
  88. 01:41:24.208                             : en:01:41:24.2089 K4 b2 E! s: A' G4 h
  89. 01:50:54.500                             : en:01:50:54.5008 F4 A0 Z; C4 W$ h/ N
复制代码

# ^9 q- r9 |3 l: q! J0 c复制代码
$ @* H: S# t4 W3 Z1 i" J
8 k# R$ s% U. y; u 不义之财 Easy.Money.2010.720p.BluRay.x264-USURY 5.46GB-2.jpg
1 m* Z0 h4 P( E- K) m) s4 s
# T8 I4 N* D- [" a
9 F4 [& S* ]' Y- ~) R. u: C8 ^+ ~: O! l" I% Q; O( s
. X- D, X7 i& |
回复

使用道具 举报

级别:群众演员 Lv.3

注册时间
2018-10-24
最后登录
2019-4-13
听众
4
收听
0
主题
0
蓝光币
95 枚
贡献
0 点
发表于 2018-10-24 21:30:10 | 显示全部楼层
感谢楼主分享精彩电影!
回复

使用道具 举报

级别:荣升主角 Lv.5

注册时间
2018-9-3
最后登录
2019-4-22
听众
5
收听
0
主题
132
蓝光币
1023 枚
贡献
151 点
发表于 2018-11-8 23:47:41 | 显示全部楼层
谢谢楼主分享
回复

使用道具 举报

懒得打字嘛,点击右侧快捷回复 【右侧内容,后台自定义】
您需要登录后才可以回帖 登录 | 立即注册

本版积分规则

QQ|Archiver|手机版|小黑屋|中国高清网  |网站地图

GMT+8, 2019-4-23 18:25 , Processed in 0.139426 second(s), 41 queries .

Powered by HDchina X3.4

Copyright 2017-2018©HDchina.All right reserved

返回顶部 联系我们