你所知道的4K资源这里全部都有 4K电影 | 4K视频 | 4K壁纸 | 4K MV 怎么播放4K视频 | 4K电视演示片

教你玩转4K私人与家庭影院存储 NAS组装 | 黑群辉 家庭/影院Nas论坛

4K家庭影院信号源与视频设备知识 4K蓝光高清播放机 - 那个品牌好? 4K投影机论坛 | 4K电视机论坛

手把手教你搭建属于自己的家庭影院 4K家庭影院案例 | 家庭影院音频 4K家庭影院论坛

查看: 91|回复: 2

[剧情片] 不义之财 Easy.Money.2010.720p.BluRay.x264-USURY 5.46GB

[复制链接]

 成长值: 120

级别:资源管理组

UID
1
注册时间
2017-10-20
最后登录
2019-1-22
听众
0
收听
0
主题
73918
蓝光币
116409 枚
贡献
143727 点
发表于 2018-10-24 19:10:10 | 显示全部楼层 |阅读模式

2 O* {+ @( a, w% I 不义之财 Easy.Money.2010.720p.BluRay.x264-USURY 5.46GB-1.jpg 0 Y' y# J# _$ D1 `! X
◎译  名 不义之财 / Easy Money5 t2 p" h# P4 y4 Q. E6 H) N
◎片  名 不义之财 Snabba Cash+ G! b7 B5 U+ t+ _2 Q- x+ _" e; t
◎年  代 2010
% ?) O, s8 V$ x; h% A◎国  家 瑞典
8 U4 p' C' I9 F2 B+ J◎类  别 剧情 / 惊悚 / 犯罪- x9 Q3 l7 l" n
◎语  言 瑞典语 / Serbian / 西班牙语 / 英语4 P5 t9 f; Z* Y( Q# Z
◎上映日期 2010-01-15. R% W" _+ Y( c6 W* m
◎IMDb评分  6.7/10 from 15,262 users
2 q5 i; B9 X* c◎IMDb链接  http://www.imdb.com/title/tt1291652/
3 m3 \4 t  o% S" {' \( H◎豆瓣评分 6.7/10 from 684 users5 q) m6 y  i5 G3 L( v2 M5 @
◎豆瓣链接 https://movie.douban.com/subject/4259560/
- U' \/ w  L( A& V9 ?4 N9 P7 A◎片  长 125分钟( o: b5 Y  w3 L9 h
◎导  演 丹尼尔·伊斯皮诺萨
& M% w6 g2 d9 \: d" n; h5 \◎主  演 乔尔·金纳曼! ]# E1 t: V0 p" W. r6 E
      Lisa Henni
+ ^$ l" `/ i/ ?/ A5 E6 i: g& {; ~      法瑞斯·法瑞斯( @3 N: i( M/ E
      Dejan Cukic
( X' t( m1 D0 W3 V      马蒂亚斯·瓦雷拉0 b, e% n9 l9 t
      Dragomir Mrsic
! ~* h+ B0 ^7 D) Y5 i. t! ?7 K( ~% |4 ~      J?rgen Berthage  z7 q' h# ~. x% J/ T* r& I1 U" O: _
      Alexander Stocks
6 q+ A' b1 J& j
* y" {# q+ X) |" `1 u◎简  介 5 Q' @9 m* k& c' x

; |5 z7 e' Z% ~/ U* J+ K0 I  报告三个生活在斯德哥尔摩的边沿人物:一个从小就从智利移民到瑞典处置毒品买卖,在斯德哥尔摩市没有人比他更有人脉,另一小我则过着两重的生活,一边跟有钱有势的朋友交往一边销售毒品,还有一个是南斯拉夫帮派下的得力助手,主如果帮帮派老迈收取俱乐部跟酒吧的庇护费。当这些人处置毒品买卖或犯罪行为的进程中,由于钱太轻易赚到,即使想过要回去那领实在在薪水普经过活,能够社会没法接管他们,又大概那轻易钱引诱太大,成果常常总是又回到之前犯罪生活。
1 ]9 u& [1 P3 f' w; n
/ ^: f$ P  h8 \/ g/ J+ N, Q/ w- Y8 J4 p

  1. , \3 Q9 H; }& `
  2. Video
    ( g/ s5 T) U3 _5 \; J
  3. ID                                       : 1- N! ?; t# _2 @6 |, w: R
  4. Format                                   : AVC8 E/ R  H6 s* c6 v
  5. Format/Info                              : Advanced Video Codec
    2 Y2 V4 F" B& O5 d* j& @. e
  6. Format profile                           : [url=/cdn-cgi/l/email-protection][email protected][/url]
    # }+ J: [, h$ Z+ s
  7. Format settings                          : CABAC / 5 Ref Frames
    1 A! W" z/ O4 E# c
  8. Format settings, CABAC                   : Yes
    : f0 B: ?& r0 I
  9. Format settings, ReFrames                : 5 frames0 t4 z6 T/ J) H6 s& k; ]1 a
  10. Codec ID                                 : V_MPEG4/ISO/AVC, c1 v' S4 v5 \% L8 w
  11. Duration                                 : 2 h 4 min3 m. E* T+ o0 b* o( H
  12. Bit rate                                 : 4 758 kb/s; B1 q3 m' S) `" j6 t
  13. Width                                    : 1 280 pixels
    ) k' I9 U2 \  s& p# P* t% G
  14. Height                                   : 544 pixels" f9 [4 F+ l9 s, o
  15. Display aspect ratio                     : 2.35:1
    + f0 J! I; O& ?3 E: `* V
  16. Frame rate mode                          : Constant3 u; d' ~7 R: r* S
  17. Frame rate                               : 24.000 FPS$ i: x' W' d$ D" a
  18. Color space                              : YUV
    $ \$ \6 R  f2 Q- t
  19. Chroma subsampling                       : 4:2:0% s: F: t/ k" F4 p- S: ^* K
  20. Bit depth                                : 8 bits
    ! j% w9 d- |: Q
  21. Scan type                                : Progressive
    : H7 ~* J) p, q/ V) y9 B& E
  22. Bits/(Pixel*Frame)                       : 0.285; N, p" w2 r$ J! W( I: l0 }
  23. Stream size                              : 4.15 GiB (76%)
    - L- w+ R2 [- G) J; X& U: M( ^
  24. Writing library                          : x264 core 157 r2935 545de2f
    , o- X3 V" I# ?3 u+ M! R
  25. Encoding settings                        : cabac=1 / ref=5 / deblock=1:-3:-3 / analyse=0x3:0x133 / me=umh / subme=9 / psy=1 / psy_rd=1.00:0.00 / mixed_ref=1 / me_range=16 / chroma_me=1 / trellis=2 / 8x8dct=1 / cqm=0 / deadzone=21,11 / fast_pskip=0 / chroma_qp_offset=-2 / threads=12 / lookahead_threads=1 / sliced_threads=0 / nr=0 / decimate=1 / interlaced=0 / bluray_compat=0 / constrained_intra=0 / bframes=3 / b_pyramid=2 / b_adapt=1 / b_bias=0 / direct=3 / weightb=1 / open_gop=0 / weightp=2 / keyint=240 / keyint_min=24 / scenecut=40 / intra_refresh=0 / rc_lookahead=50 / rc=2pass / mbtree=1 / bitrate=4758 / ratetol=1.0 / qcomp=0.60 / qpmin=0 / qpmax=69 / qpstep=4 / cplxblur=20.0 / qblur=0.5 / ip_ratio=1.40 / aq=1:1.00) n8 x, x) E" E4 M
  26. Language                                 : English8 }! _. ^! w1 a7 r
  27. Default                                  : Yes3 M* S1 e$ U* X1 V6 |7 s
  28. Forced                                   : No+ U+ @( o( N, u9 v/ j! I
  29. ( g4 q8 b" w0 c4 ~; G9 P& }8 s
  30. Audio: _: \, c' B4 s) {# s
  31. ID                                       : 2
    ; k7 H4 ?- [. L% W
  32. Format                                   : DTS" ]: n* t4 g! Y* r
  33. Format/Info                              : Digital Theater Systems
    ' p% i8 H& A) m, Q0 r
  34. Codec ID                                 : A_DTS& B6 i8 ]- R, K1 c, z; N- q/ I
  35. Duration                                 : 2 h 4 min
    9 l4 p. C& W$ {, w$ v9 c( [
  36. Bit rate mode                            : Constant! U) z& K+ E/ q
  37. Bit rate                                 : 1 509 kb/s
      H. M! o9 g" L' r& c
  38. Channel(s)                               : 6 channels
    6 k, o% Q" w* B  i0 d; t( b0 m( L
  39. Channel layout                           : C L R Ls Rs LFE. m9 ^4 H7 L+ }6 K
  40. Sampling rate                            : 48.0 kHz
    7 ~2 R1 b. X" a0 }- T3 V2 o; u
  41. Frame rate                               : 93.750 FPS (512 SPF)) z, Z: c8 @1 J2 ^
  42. Bit depth                                : 24 bits
    7 U, F  l0 f' k% B5 l, M( i
  43. Compression mode                         : Lossy: e5 H+ l! u& `% H; w
  44. Stream size                              : 1.32 GiB (24%)
    . D( H- v/ R3 p1 [: z2 l9 r0 `
  45. Language                                 : Swedish
    ' u" ^  `7 U/ P9 F% I
  46. Default                                  : Yes2 }8 j+ O3 b9 ]1 c  g
  47. Forced                                   : No
    % b* j# P+ S  v, y! b3 h

  48. ' i( w' ]  E: x( g9 ?0 |6 y* O9 h) S
  49. Text #1
    6 A! ?: f* @7 \& I2 `- i
  50. ID                                       : 3: |" U6 r6 y. C* ?- a
  51. Format                                   : UTF-8
    0 _' t4 k8 P! T0 x0 o$ t
  52. Codec ID                                 : S_TEXT/UTF8, `* S( ~: c) V2 c+ Q, }
  53. Codec ID/Info                            : UTF-8 Plain Text( H3 Y0 S5 R3 C" L
  54. Duration                                 : 1 h 57 min
    ' y7 w7 `( m6 e2 \, y
  55. Bit rate                                 : 37 b/s
    * i- h- Y1 P; V: ?& R; y! N
  56. Count of elements                        : 944, T$ K2 V1 N% b: ?7 ]! E3 F
  57. Stream size                              : 32.4 KiB (0%): D. B) [$ ~' Y% _: d1 O# t- Y6 ]
  58. Title                                    : English! r6 p7 [- G/ T  K* L; B5 H6 z* {
  59. Language                                 : English  ^/ `# e3 N# v
  60. Default                                  : Yes
    : C0 u( ]# i+ B% K& m
  61. Forced                                   : Yes, x+ {; e- g- G; ~/ G6 d

  62. : m$ p, o: r7 A1 l/ t
  63. Text #2: t* ]6 u# g7 _" M- _# w
  64. ID                                       : 4
    : {% h& l' A0 x! C- t' y" o
  65. Format                                   : UTF-84 ?( Q  E. G0 J5 I
  66. Codec ID                                 : S_TEXT/UTF8: e3 a5 y% H0 F) R
  67. Codec ID/Info                            : UTF-8 Plain Text
    + N* a# L1 M4 c5 x" y
  68. Duration                                 : 1 h 58 min7 k3 m+ Y: Q' A7 e
  69. Bit rate                                 : 42 b/s5 |9 R: V# M8 u" I
  70. Count of elements                        : 1113. I$ Q/ w% V! |; @7 f( ~* I, Z
  71. Stream size                              : 36.4 KiB (0%)
    1 V3 S" h8 d& |4 J" \/ ?
  72. Title                                    : English SDH
    / v* d* {* |7 `4 s( C) F  \0 s
  73. Language                                 : English& y% ]" ]/ G2 M9 w7 k
  74. Default                                  : No
    % {  d. s1 F9 H6 O3 N
  75. Forced                                   : No
    4 j" N8 U* Y$ f# w* T' n# o( W/ i
  76. 3 j$ V5 m% H8 W* I( N. ?
  77. Menu' T" a7 \! J  t
  78. 00:00:00.000                             : en:00:00:00.000# U  J) c1 u- [0 _8 d
  79. 00:09:10.167                             : en:00:09:10.167
    ! q* G+ }+ X' j; r" A) \
  80. 00:20:44.750                             : en:00:20:44.750
    ) A5 I8 M5 p% k/ `7 ~
  81. 00:30:03.708                             : en:00:30:03.708
    ) Z9 M3 P% v: f
  82. 00:40:55.792                             : en:00:40:55.792
    9 M0 l* c, _: ?0 k" d2 m0 }1 t
  83. 00:50:31.000                             : en:00:50:31.000
    # v' t: H, b, n9 F
  84. 01:01:05.042                             : en:01:01:05.042
    ) M% L) j) A1 o) c( e; D
  85. 01:10:36.292                             : en:01:10:36.2921 m7 ?/ ]: a* j. g: U
  86. 01:19:35.375                             : en:01:19:35.375
    ( }8 x4 J* n3 M9 C5 Q% A' H# p, |
  87. 01:29:54.375                             : en:01:29:54.375
    % W2 o. @; N1 a5 R7 r& F: B
  88. 01:41:24.208                             : en:01:41:24.208
    6 M. n8 T' u  Y2 m3 P( I
  89. 01:50:54.500                             : en:01:50:54.500, N5 E1 j% M! c: P8 H4 f4 e
复制代码
- G$ S0 }! G& K- W9 ?3 D! f" q
复制代码- }4 R3 S% \: ?! V% ?) _% |
/ t3 u+ |0 J9 d% i* u1 C
不义之财 Easy.Money.2010.720p.BluRay.x264-USURY 5.46GB-2.jpg
/ s; ]& A: m$ s+ e0 @2 M
  U! {4 a6 c4 q. a9 K. e
" e* Q8 q* M8 ^% g+ i0 A- v& o+ W9 _; D' V( }

) o2 F/ @( c# _5 `: [
回复

使用道具 举报

级别:群众演员 Lv.3

UID
8897
注册时间
2018-10-24
最后登录
2019-1-18
听众
2
收听
0
主题
0
蓝光币
69 枚
贡献
0 点
发表于 2018-10-24 21:30:10 | 显示全部楼层
感谢楼主分享精彩电影!
回复

使用道具 举报

级别:荣升主角 Lv.5

UID
6628
注册时间
2018-9-3
最后登录
2019-1-21
听众
3
收听
0
主题
72
蓝光币
641 枚
贡献
91 点
发表于 2018-11-8 23:47:41 | 显示全部楼层
谢谢楼主分享
回复

使用道具 举报

懒得打字嘛,点击右侧快捷回复 【右侧内容,后台自定义】
您需要登录后才可以回帖 登录 | 立即注册

本版积分规则

QQ|Archiver|手机版|小黑屋|中国高清网 |网站地图

GMT+8, 2019-1-22 08:25 , Processed in 0.140030 second(s), 40 queries .

Powered by HDchina X3.4

Copyright 2017-2018©HDchina.All right reserved

返回顶部 联系我们