你所知道的4K资源这里全部都有 4K电影 | 4K视频 | 4K壁纸 | 4K MV 怎么播放4K视频 | 4K电视演示片

教你玩转4K私人与家庭影院存储 NAS组装 | 黑群辉 家庭/影院Nas论坛

4K家庭影院信号源与视频设备知识 4K蓝光高清播放机 - 那个品牌好? 4K投影机论坛 | 4K电视机论坛

手把手教你搭建属于自己的家庭影院 4K家庭影院案例 | 家庭影院音频 4K家庭影院论坛

查看: 38|回复: 2

[惊悚片] 富翁的妻子/魔鬼交易 The.Rich.Mans.Wife.1996.720p.BluRay.x264-UNVEiL 4.37GB

[复制链接]

级别:资源管理组

UID
1
注册时间
2017-10-20
最后登录
2018-11-21
听众
0
收听
0
主题
72220
蓝光币
99015 枚
贡献
142028 点
发表于 2018-10-24 19:07:04 | 显示全部楼层 |阅读模式
9 c( Y$ q! U" H+ a9 g0 ]8 |. }
富翁的妻子/魔鬼买卖 The.Rich.Mans.Wife.1996.720p.BluRay.x264-UNVEiL 4.37GB-1.jpg 9 y5 P2 e  f" [+ l% C( U3 b5 ]
◎译  名 富翁的妻子 / 魔鬼买卖 / 错入朱门& A) C6 o  `' s6 `) r
◎片  名 富翁的妻子 The Rich Man's Wife8 ~7 C5 ?! V8 k# o& u; B9 Z
◎年  代 1996
: n0 y3 O* K) ?/ G◎国  家 美国! {7 O* U2 M' u4 a2 u% D+ u- J% q3 ~
◎类  别 惊悚$ m; ?; Q% p. z% f  V
◎语  言 英语# A; g! W8 G7 @9 o! H1 E8 {8 a; M$ a
◎上映日期 1996-09-13(美国)
6 ^1 I1 Y3 S( ~+ [" L3 Z◎IMDb评分  5.2/10 from 2,742 users
) k2 W9 ^& C2 G6 r2 ], d, o◎IMDb链接  http://www.imdb.com/title/tt0117473/; g5 H  h, K. {+ K8 l2 y
◎豆瓣评分 6.4/10 from 106 users
1 x, P2 V' @! @4 F◎豆瓣链接 https://movie.douban.com/subject/1295163/
8 }" ]$ h0 z, B: `2 l% ~! o/ i◎片  长 94 分钟
4 i; U- t; }9 \0 R2 v3 C0 W◎导  演 埃米·霍尔登·琼斯; o: G* ?5 d+ f) T- }/ K
◎主  演 哈莉·贝瑞- h, k4 R  I  C0 T4 L" [( t7 O
      彼得·格林纳, l8 F. A  E, M  t( Q5 g1 n
      克里夫·欧文5 `% V  \5 @' s4 m
5 {* @. e3 A5 e6 ~1 x. j/ r
◎简  介 " a' z6 h8 E- }
: a9 H2 @; A! |% h# J
  绮年玉貌的袭丝嫁给了年数大一截的富人汤姆,她以为今后将过着幸运欢畅生活,谁知花心又爱酗酒的汤姆一次又一次让袭丝失望,不甘孤单的她公开里也另结新欢杰克,但为挽回丈夫的心,她决议与情夫分手并与丈夫到岛上渡假,未料...
% m5 Z1 B3 I% T0 k( g2 @* U
3 h7 {% b% f% q% Q
  • Video
  • ID                                       : 1
  • Format                                   : AVC
  • Format/Info                              : Advanced Video Codec
  • Format profile                           : [email protected]
  • Format settings                          : CABAC / 5 Ref Frames
  • Format settings, CABAC                   : Yes
  • Format settings, ReFrames                : 5 frames
  • Codec ID                                 : V_MPEG4/ISO/AVC
  • Duration                                 : 1 h 35 min
  • Bit rate                                 : 5 075 kb/s
  • Width                                    : 1 280 pixels
  • Height                                   : 688 pixels
  • Display aspect ratio                     : 1.85:1
  • Frame rate mode                          : Constant
  • Frame rate                               : 23.976 (24000/1001) FPS
  • Color space                              : YUV
  • Chroma subsampling                       : 4:2:0
  • Bit depth                                : 8 bits
  • Scan type                                : Progressive
  • Bits/(Pixel*Frame)                       : 0.240
  • Stream size                              : 3.37 GiB (77%)
  • Writing library                          : x264 core 155 r2901 7d0ff22
  • Encoding settings                        : cabac=1 / ref=5 / deblock=1:-2:-2 / analyse=0x3:0x113 / me=umh / subme=8 / psy=1 / psy_rd=1.00:0.00 / mixed_ref=1 / me_range=16 / chroma_me=1 / trellis=2 / 8x8dct=1 / cqm=0 / deadzone=21,11 / fast_pskip=1 / chroma_qp_offset=-2 / threads=12 / lookahead_threads=2 / sliced_threads=0 / nr=0 / decimate=1 / interlaced=0 / bluray_compat=0 / constrained_intra=0 / bframes=3 / b_pyramid=2 / b_adapt=2 / b_bias=0 / direct=3 / weightb=1 / open_gop=0 / weightp=2 / keyint=240 / keyint_min=24 / scenecut=40 / intra_refresh=0 / rc_lookahead=50 / rc=2pass / mbtree=1 / bitrate=5075 / ratetol=1.0 / qcomp=0.60 / qpmin=0 / qpmax=69 / qpstep=4 / cplxblur=20.0 / qblur=0.5 / ip_ratio=1.40 / aq=1:1.00
  • Language                                 : English
  • Default                                  : Yes
  • Forced                                   : No
  • Audio
  • ID                                       : 2
  • Format                                   : DTS
  • Format/Info                              : Digital Theater Systems
  • Codec ID                                 : A_DTS
  • Duration                                 : 1 h 34 min
  • Bit rate mode                            : Constant
  • Bit rate                                 : 1 509 kb/s
  • Channel(s)                               : 2 channels
  • Channel layout                           : L R
  • Sampling rate                            : 48.0 kHz
  • Frame rate                               : 93.750 FPS (512 SPF)
  • Bit depth                                : 24 bits
  • Compression mode                         : Lossy
  • Stream size                              : 1 024 MiB (23%)
  • Language                                 : English
  • Default                                  : Yes
  • Forced                                   : No
  • Menu
  • 00:00:00.000                             : en:00:00:00.000
  • 00:09:48.213                             : en:00:09:48.213
  • 00:23:40.544                             : en:00:23:40.544
  • 00:31:22.756                             : en:00:31:22.756
  • 00:43:21.432                             : en:00:43:21.432
  • 00:56:51.325                             : en:00:56:51.325
  • 01:07:04.145                             : en:01:07:04.145
  • 01:23:43.143                             : en:01:23:43.143. z+ i+ ~) a" H0 g% y6 ?1 Z
, _' T2 h' Y+ S0 v
复制代码7 i1 U; q- }8 I( P

$ {) `7 g2 b: G 富翁的妻子/魔鬼买卖 The.Rich.Mans.Wife.1996.720p.BluRay.x264-UNVEiL 4.37GB-2.jpg 2 R" S8 v; U1 d

+ n0 A8 A. w" D/ x/ {
/ Z! U5 D+ |) \0 T3 @8 K4 v- q
6 h) R  C' p. L( N
. |+ K* e# _9 N3 }7 y- z7 \- n  S
- G3 S( b- d1 ~) d
回复

使用道具 举报

级别:专业龙套 Lv.4

UID
6628
注册时间
2018-9-3
最后登录
2018-11-20
听众
3
收听
0
主题
24
蓝光币
402 枚
贡献
43 点
发表于 2018-11-9 00:04:33 | 显示全部楼层
谢谢楼主分享
回复

使用道具 举报

级别:专业龙套 Lv.4

UID
6628
注册时间
2018-9-3
最后登录
2018-11-20
听众
3
收听
0
主题
24
蓝光币
402 枚
贡献
43 点
发表于 2018-11-9 00:11:43 | 显示全部楼层
谢谢楼主分享
回复

使用道具 举报

您需要登录后才可以回帖 登录 | 立即注册

本版积分规则

QQ|Archiver|手机版|小黑屋|中国高清网  |网站地图

GMT+8, 2018-11-21 22:37 , Processed in 0.134180 second(s), 42 queries .

Powered by HDchina X3.4

Copyright 2017-2018©HDchina.All right reserved

返回顶部 联系我们