你所知道的4K资源这里全部都有 4K电影 | 4K视频 | 4K壁纸 | 4K MV 怎么播放4K视频 | 4K电视演示片

教你玩转4K私人与家庭影院存储 NAS组装 | 黑群辉 家庭/影院Nas论坛

4K家庭影院信号源与视频设备知识 4K蓝光高清播放机 - 那个品牌好? 4K投影机论坛 | 4K电视机论坛

手把手教你搭建属于自己的家庭影院 4K家庭影院案例 | 家庭影院音频 4K家庭影院论坛

查看: 119|回复: 2

[惊悚片] 富翁的妻子/魔鬼交易 The.Rich.Mans.Wife.1996.720p.BluRay.x264-UNVEiL 4.37GB

[复制链接]

 成长值: 1040

级别:资源管理组

注册时间
2017-10-20
最后登录
2019-4-23
听众
0
收听
0
主题
76979
蓝光币
8537 枚
贡献
1287 点
发表于 2018-10-24 19:07:04 | 显示全部楼层 |阅读模式
/ k+ m; J& z6 o% m) ]% \
富翁的妻子/魔鬼买卖 The.Rich.Mans.Wife.1996.720p.BluRay.x264-UNVEiL 4.37GB-1.jpg " L) V/ l8 h* D9 y2 i
◎译  名 富翁的妻子 / 魔鬼买卖 / 错入朱门
: |5 G% L% H7 E1 n' y: J8 ]◎片  名 富翁的妻子 The Rich Man's Wife
# `8 N: `4 F$ P% m4 N4 L/ Z, ?◎年  代 1996
2 z7 i  C/ b4 f3 B) R% o- _5 y8 [3 X◎国  家 美国3 I& x6 w6 Q# {$ K* m
◎类  别 惊悚
6 t( E1 o; J2 n; F◎语  言 英语
* e, r# ?8 m' T3 s# J3 h; M◎上映日期 1996-09-13(美国); u  A" F2 F0 d/ R
◎IMDb评分  5.2/10 from 2,742 users$ b$ ^( J9 N# K8 n; X' M# v% e
◎IMDb链接  http://www.imdb.com/title/tt0117473/$ W6 q/ g" D2 i8 G" W
◎豆瓣评分 6.4/10 from 106 users5 t! F6 Y: w8 L- V  x/ ]3 Z
◎豆瓣链接 https://movie.douban.com/subject/1295163/+ t+ B: \9 b* T; A9 L
◎片  长 94 分钟
# g( J; Y  B% Y6 r$ ~6 I" C* k◎导  演 埃米·霍尔登·琼斯
' T6 H# }$ c% [# D◎主  演 哈莉·贝瑞: A# R% ^5 O6 P# t5 c: d" u
      彼得·格林纳5 t5 B. p6 a6 R% A  q. [
      克里夫·欧文
8 q0 {/ \9 i: X0 |% ]; M: \& N. U0 B! D
◎简  介 
( A2 g7 s# N  s2 }( [  |+ z" Z  s" B! K" H
  绮年玉貌的袭丝嫁给了年数大一截的富人汤姆,她以为今后将过着幸运欢畅生活,谁知花心又爱酗酒的汤姆一次又一次让袭丝失望,不甘孤单的她公开里也另结新欢杰克,但为挽回丈夫的心,她决议与情夫分手并与丈夫到岛上渡假,未料...
( p  y: Y1 ^! T5 H1 v
* g4 I6 A8 S. [$ r5 F9 @" ^
  1. . X, X) ?5 q" k. d1 e
  2. Video
    : y6 v. [7 g+ I( p( [, f' r
  3. ID                                       : 1
    2 T+ u0 I3 U, ^' x/ b: f6 W, l6 m
  4. Format                                   : AVC. f) u' G3 U" _* J2 |- K, W) {
  5. Format/Info                              : Advanced Video Codec
      `5 ?4 d7 Z/ B" k
  6. Format profile                           : [url=/cdn-cgi/l/email-protection][email protected][/url]
    , Y- v( U9 X  k1 W- o+ s
  7. Format settings                          : CABAC / 5 Ref Frames! a! u+ i( O8 }! e7 A
  8. Format settings, CABAC                   : Yes
    3 d( W2 l9 d0 o; y
  9. Format settings, ReFrames                : 5 frames
    . V/ a3 ?  ?( L; d( C
  10. Codec ID                                 : V_MPEG4/ISO/AVC% K1 B+ z6 I) u* q# ]
  11. Duration                                 : 1 h 35 min
    " u: _5 u  O0 D. ^& ~4 b/ e4 Q
  12. Bit rate                                 : 5 075 kb/s" j2 r( f8 K9 M' B4 x
  13. Width                                    : 1 280 pixels
    3 K+ Z2 Y9 P+ F% s- X+ j
  14. Height                                   : 688 pixels. W  @5 u3 v: [; s8 a
  15. Display aspect ratio                     : 1.85:16 a! l9 o( n5 ~" L( N4 u. v6 H2 c
  16. Frame rate mode                          : Constant
    $ z) J9 [' _5 f- w* `! x
  17. Frame rate                               : 23.976 (24000/1001) FPS
    . D# b2 I' O" D- }" ?
  18. Color space                              : YUV% U! ]/ h9 ^! u* Z( y
  19. Chroma subsampling                       : 4:2:03 K" `1 O9 X+ f/ l
  20. Bit depth                                : 8 bits' Y; B7 Q8 _0 ?. W
  21. Scan type                                : Progressive
    ; x0 E0 S% l& Q2 v) R5 c
  22. Bits/(Pixel*Frame)                       : 0.2407 n, v2 l, P4 U# w  G2 \/ G
  23. Stream size                              : 3.37 GiB (77%)& h& I; r/ h. g: c* \1 W
  24. Writing library                          : x264 core 155 r2901 7d0ff22
    / l5 W1 d2 T$ R+ B" w, ]
  25. Encoding settings                        : cabac=1 / ref=5 / deblock=1:-2:-2 / analyse=0x3:0x113 / me=umh / subme=8 / psy=1 / psy_rd=1.00:0.00 / mixed_ref=1 / me_range=16 / chroma_me=1 / trellis=2 / 8x8dct=1 / cqm=0 / deadzone=21,11 / fast_pskip=1 / chroma_qp_offset=-2 / threads=12 / lookahead_threads=2 / sliced_threads=0 / nr=0 / decimate=1 / interlaced=0 / bluray_compat=0 / constrained_intra=0 / bframes=3 / b_pyramid=2 / b_adapt=2 / b_bias=0 / direct=3 / weightb=1 / open_gop=0 / weightp=2 / keyint=240 / keyint_min=24 / scenecut=40 / intra_refresh=0 / rc_lookahead=50 / rc=2pass / mbtree=1 / bitrate=5075 / ratetol=1.0 / qcomp=0.60 / qpmin=0 / qpmax=69 / qpstep=4 / cplxblur=20.0 / qblur=0.5 / ip_ratio=1.40 / aq=1:1.00
    6 W' I3 L% H. s( u$ D* C/ z: Q! V
  26. Language                                 : English. C& ~8 U9 L8 c3 b* E7 F! t
  27. Default                                  : Yes0 O# ?$ ^8 C- ?! r4 c- h
  28. Forced                                   : No
    " n) _9 d$ c- X' b; t2 D
  29. 6 U% \0 S( s9 ?, B
  30. Audio$ m, F+ u$ x' I
  31. ID                                       : 2- Y8 l3 d. e4 `4 X  s
  32. Format                                   : DTS
    . ^$ }0 L. ]2 O0 l5 ^1 k3 Q
  33. Format/Info                              : Digital Theater Systems
    9 \! ]5 w/ Q2 S& B1 v7 v
  34. Codec ID                                 : A_DTS
    9 ?; O$ j7 U9 a3 T' P
  35. Duration                                 : 1 h 34 min8 D/ c6 V' @. k2 Y
  36. Bit rate mode                            : Constant
    8 m/ M3 |6 m- q9 n' m( s* D) n6 V4 f
  37. Bit rate                                 : 1 509 kb/s
    " S9 [7 w0 R7 V
  38. Channel(s)                               : 2 channels
    6 g$ ~2 q, O9 |+ w4 M! ?; G# ]7 z1 u
  39. Channel layout                           : L R+ C, O  o, j9 W" t8 f2 _
  40. Sampling rate                            : 48.0 kHz  E) I0 J- \3 R; |) B
  41. Frame rate                               : 93.750 FPS (512 SPF)
    " y9 \5 Q. r, ?/ @0 A" S5 ]. l
  42. Bit depth                                : 24 bits0 L' {8 E7 M+ U3 }& J, d3 s. T; u
  43. Compression mode                         : Lossy
    2 r5 C6 c" o4 H3 q5 F% E* k' S2 `* r
  44. Stream size                              : 1 024 MiB (23%)2 j5 R8 H# h& K0 {
  45. Language                                 : English
    * a) u: K) X" |9 f% N  q
  46. Default                                  : Yes& M" d9 u; r0 S. Z0 a; }, U, O- ?
  47. Forced                                   : No
    / h# e! B7 s9 ^- I5 D. T

  48. / a7 a, h0 B7 k
  49. Menu$ p# _  p. x0 `5 K, H
  50. 00:00:00.000                             : en:00:00:00.000& q* o1 @( x$ ]1 D4 @4 O, G7 L5 a
  51. 00:09:48.213                             : en:00:09:48.213& O* ]) F+ E, t! _. V- N5 G" f
  52. 00:23:40.544                             : en:00:23:40.5447 z1 {. v0 w1 `. ^) @- y
  53. 00:31:22.756                             : en:00:31:22.756
    . i" q- D# M8 l+ P
  54. 00:43:21.432                             : en:00:43:21.432/ t& m1 S- Q' n9 H& i5 F
  55. 00:56:51.325                             : en:00:56:51.325
    ; \: ^; K6 H0 f+ C/ f2 n( {
  56. 01:07:04.145                             : en:01:07:04.145
    ( |5 a, s1 o( r; U3 X
  57. 01:23:43.143                             : en:01:23:43.143) _8 T5 g, L* p4 _
复制代码

( J- C# {; v$ |, w, x' z复制代码& G; ~9 m9 g: {  W+ n3 r2 E
( k/ n9 ?5 r- J2 U
富翁的妻子/魔鬼买卖 The.Rich.Mans.Wife.1996.720p.BluRay.x264-UNVEiL 4.37GB-2.jpg
% k4 Y4 a1 F- R6 c5 p1 E) C, Y8 I1 O0 o
- X3 V" R# v8 m$ x5 v

7 [2 |: H* h$ }! c2 U
" }5 }! N% X! A' Q6 v- v7 B+ O6 a* S* b' w6 Z0 w5 ^
回复

使用道具 举报

级别:荣升主角 Lv.5

注册时间
2018-9-3
最后登录
2019-4-22
听众
5
收听
0
主题
132
蓝光币
1023 枚
贡献
151 点
发表于 2018-11-9 00:04:33 | 显示全部楼层
谢谢楼主分享
回复

使用道具 举报

级别:荣升主角 Lv.5

注册时间
2018-9-3
最后登录
2019-4-22
听众
5
收听
0
主题
132
蓝光币
1023 枚
贡献
151 点
发表于 2018-11-9 00:11:43 | 显示全部楼层
谢谢楼主分享
回复

使用道具 举报

懒得打字嘛,点击右侧快捷回复 【右侧内容,后台自定义】
您需要登录后才可以回帖 登录 | 立即注册

本版积分规则

QQ|Archiver|手机版|小黑屋|中国高清网  |网站地图

GMT+8, 2019-4-23 18:38 , Processed in 0.121554 second(s), 42 queries .

Powered by HDchina X3.4

Copyright 2017-2018©HDchina.All right reserved

返回顶部 联系我们