你所知道的4K资源这里全部都有 4K电影 | 4K视频 | 4K壁纸 | 4K MV 怎么播放4K视频 | 4K电视演示片

教你玩转4K私人与家庭影院存储 NAS组装 | 黑群辉 家庭/影院Nas论坛

4K家庭影院信号源与视频设备知识 4K蓝光高清播放机 - 那个品牌好? 4K投影机论坛 | 4K电视机论坛

手把手教你搭建属于自己的家庭影院 4K家庭影院案例 | 家庭影院音频 4K家庭影院论坛

查看: 75|回复: 2

[惊悚片] 富翁的妻子/魔鬼交易 The.Rich.Mans.Wife.1996.720p.BluRay.x264-UNVEiL 4.37GB

[复制链接]

 成长值: 120

级别:资源管理组

UID
1
注册时间
2017-10-20
最后登录
2019-1-22
听众
0
收听
0
主题
73918
蓝光币
116411 枚
贡献
143727 点
发表于 2018-10-24 19:07:04 | 显示全部楼层 |阅读模式
" T5 j' p3 x  K+ L, [2 X/ Z
富翁的妻子/魔鬼买卖 The.Rich.Mans.Wife.1996.720p.BluRay.x264-UNVEiL 4.37GB-1.jpg
- ~4 ~( f, B! i% j2 m; N◎译  名 富翁的妻子 / 魔鬼买卖 / 错入朱门1 Z. R: ]( D. v+ t. }4 R5 R
◎片  名 富翁的妻子 The Rich Man's Wife$ x: J) `" }7 e3 l+ D4 h
◎年  代 1996
, ?1 `% B; V2 n# k◎国  家 美国
0 b. r; Q/ A. R0 |/ o9 @# o; Z◎类  别 惊悚9 V3 E: r( _- J4 l! s! j
◎语  言 英语
! N) d  A% u. l' D. E◎上映日期 1996-09-13(美国)
8 C  X: q* `% h& d◎IMDb评分  5.2/10 from 2,742 users! r9 V2 b8 z" c8 ^* A
◎IMDb链接  http://www.imdb.com/title/tt0117473/+ v" Q+ A0 K( J
◎豆瓣评分 6.4/10 from 106 users
# M6 C: y8 J3 X8 l8 N: I) o◎豆瓣链接 https://movie.douban.com/subject/1295163/( N/ Z8 V% Q/ v) H8 Q% q
◎片  长 94 分钟# j! |0 q8 T, J* D
◎导  演 埃米·霍尔登·琼斯
) W7 _9 x2 \% P3 r◎主  演 哈莉·贝瑞7 G! [; L! h# i* G3 B2 K" d% A/ Y
      彼得·格林纳) F: x7 t# T: q( v
      克里夫·欧文) ]/ j; E: Z3 b- s0 H: Q# O

8 C. V; l: h9 a) r; _6 p◎简  介 
  x* _$ B) p" S4 B4 u
/ M0 V  C! X; P$ }  绮年玉貌的袭丝嫁给了年数大一截的富人汤姆,她以为今后将过着幸运欢畅生活,谁知花心又爱酗酒的汤姆一次又一次让袭丝失望,不甘孤单的她公开里也另结新欢杰克,但为挽回丈夫的心,她决议与情夫分手并与丈夫到岛上渡假,未料...
4 U" @- R6 L" y: R7 w& k/ ]" b  }

  1. + m% y- x5 E9 a3 x
  2. Video7 j. E: _& [% z) n5 m
  3. ID                                       : 18 Y& d, S' w+ d% L) [/ r9 @
  4. Format                                   : AVC
    ' W. Z  W! |( [/ N+ J! U! r% i
  5. Format/Info                              : Advanced Video Codec
    ' c6 T& x' M% f; u- l
  6. Format profile                           : [url=/cdn-cgi/l/email-protection][email protected][/url]- u8 Q* Q& ?0 I1 ^3 ?* [
  7. Format settings                          : CABAC / 5 Ref Frames
    . @$ S/ \! t- z7 U# S
  8. Format settings, CABAC                   : Yes2 l7 @7 a# A8 I, i
  9. Format settings, ReFrames                : 5 frames' j# g( U# W2 H: w  a) ]
  10. Codec ID                                 : V_MPEG4/ISO/AVC
    " E/ q  z3 H2 M  B
  11. Duration                                 : 1 h 35 min
    . F0 O& H5 }/ s9 z+ b$ Z
  12. Bit rate                                 : 5 075 kb/s  H6 B+ h( I  q  w3 U+ I
  13. Width                                    : 1 280 pixels3 h" X/ M$ m$ ~1 N, T( z. ]8 S6 u* `
  14. Height                                   : 688 pixels  [, P6 }8 Q3 |& X
  15. Display aspect ratio                     : 1.85:1
    2 ~& g5 C% E: Q. z! H! x9 V
  16. Frame rate mode                          : Constant
    & Y8 j, [! f: X# Y
  17. Frame rate                               : 23.976 (24000/1001) FPS
    0 L/ a& r" N; w2 x5 \  y
  18. Color space                              : YUV+ b. J  R% z: G9 b; U
  19. Chroma subsampling                       : 4:2:0, J, |- C: S6 u% N
  20. Bit depth                                : 8 bits
    6 [& ^% {9 S4 V( y9 n/ Q; }
  21. Scan type                                : Progressive3 X: R" C* |. J
  22. Bits/(Pixel*Frame)                       : 0.240
    $ H) M9 h6 }6 j9 t1 \4 O9 y
  23. Stream size                              : 3.37 GiB (77%)
    8 I. O& W1 C5 ?& ]5 T
  24. Writing library                          : x264 core 155 r2901 7d0ff22" V2 j8 }8 i4 B' C6 E7 N
  25. Encoding settings                        : cabac=1 / ref=5 / deblock=1:-2:-2 / analyse=0x3:0x113 / me=umh / subme=8 / psy=1 / psy_rd=1.00:0.00 / mixed_ref=1 / me_range=16 / chroma_me=1 / trellis=2 / 8x8dct=1 / cqm=0 / deadzone=21,11 / fast_pskip=1 / chroma_qp_offset=-2 / threads=12 / lookahead_threads=2 / sliced_threads=0 / nr=0 / decimate=1 / interlaced=0 / bluray_compat=0 / constrained_intra=0 / bframes=3 / b_pyramid=2 / b_adapt=2 / b_bias=0 / direct=3 / weightb=1 / open_gop=0 / weightp=2 / keyint=240 / keyint_min=24 / scenecut=40 / intra_refresh=0 / rc_lookahead=50 / rc=2pass / mbtree=1 / bitrate=5075 / ratetol=1.0 / qcomp=0.60 / qpmin=0 / qpmax=69 / qpstep=4 / cplxblur=20.0 / qblur=0.5 / ip_ratio=1.40 / aq=1:1.00
    * p) F, |) l) ^: J$ A0 w
  26. Language                                 : English
    ! t. n2 P" z5 r. s! E
  27. Default                                  : Yes
    6 t: N  U6 H8 a6 D+ s: q4 l
  28. Forced                                   : No
    ) [! U* J+ S5 v( r+ F( D6 m

  29. 3 s8 D9 J0 E  c( W' ^
  30. Audio
    6 L; C  H7 m! `6 t
  31. ID                                       : 2
    ' g+ ^* }) x/ y- s1 n
  32. Format                                   : DTS
    * Q9 {8 ~* ?4 W) o3 O8 h
  33. Format/Info                              : Digital Theater Systems
    ) [  T: |( K# n
  34. Codec ID                                 : A_DTS
    7 W8 H' |3 ?9 p* e
  35. Duration                                 : 1 h 34 min, L) h0 l7 `0 I
  36. Bit rate mode                            : Constant4 ?/ ~4 v& Q+ K+ x9 P
  37. Bit rate                                 : 1 509 kb/s! j; Y9 k. u" w3 o
  38. Channel(s)                               : 2 channels
    6 P; E; @+ X- B* r! t4 T9 h9 z
  39. Channel layout                           : L R
    5 |) }. ~" x- s" n, s$ y6 [4 L
  40. Sampling rate                            : 48.0 kHz
    2 o$ s, S9 X+ I0 y% j7 W: o
  41. Frame rate                               : 93.750 FPS (512 SPF)
    . ]4 j9 T  U: }7 P
  42. Bit depth                                : 24 bits/ _% k  ]; R  D: L: O
  43. Compression mode                         : Lossy
    0 K2 H% @9 G4 C3 `. M
  44. Stream size                              : 1 024 MiB (23%)
    1 o* |+ g+ [8 l$ W0 q9 S
  45. Language                                 : English, w& _# [( m1 [' Z4 R1 y
  46. Default                                  : Yes
    * c+ S/ C% l9 m( s. ~
  47. Forced                                   : No( Y/ N3 X1 f2 U* ~
  48. / R) p/ D+ x' x; y. X' e# ^
  49. Menu7 I" s/ o& z' p4 Q* ]
  50. 00:00:00.000                             : en:00:00:00.0002 I; C' m+ y) Q9 B, O, i* d
  51. 00:09:48.213                             : en:00:09:48.2139 [; O8 c4 G' H
  52. 00:23:40.544                             : en:00:23:40.544
    ) W9 C; p. u$ }' M! V
  53. 00:31:22.756                             : en:00:31:22.756
    , d; p6 N! @: r: `
  54. 00:43:21.432                             : en:00:43:21.432
    ( \1 g! c( Z' |" t1 D) _; L( w
  55. 00:56:51.325                             : en:00:56:51.325$ o2 S6 ~2 f- g1 Z
  56. 01:07:04.145                             : en:01:07:04.1455 Y5 v/ O+ G0 S! n' l% w: y! X( h1 P
  57. 01:23:43.143                             : en:01:23:43.143
    ' ]& x, H3 N! ?- p$ v
复制代码
# O* Y* h) W) |  C5 ]
复制代码' v3 z' L9 e! k1 s
7 R( Q9 R7 R. n$ s, P# E- t( w% n  d
富翁的妻子/魔鬼买卖 The.Rich.Mans.Wife.1996.720p.BluRay.x264-UNVEiL 4.37GB-2.jpg   H' Z& l* T; T2 |3 r( d  ?/ ^8 E
  ?; c4 V8 O: E4 S) n5 O: j9 [* u2 _

6 n4 j' h3 [1 T- o
: X4 D% e5 k, F* p$ G( S1 }7 W1 Z- F
/ n; n6 i" Y' v' V* S& `/ z; c, Q3 D
回复

使用道具 举报

级别:荣升主角 Lv.5

UID
6628
注册时间
2018-9-3
最后登录
2019-1-21
听众
3
收听
0
主题
72
蓝光币
641 枚
贡献
91 点
发表于 2018-11-9 00:04:33 | 显示全部楼层
谢谢楼主分享
回复

使用道具 举报

级别:荣升主角 Lv.5

UID
6628
注册时间
2018-9-3
最后登录
2019-1-21
听众
3
收听
0
主题
72
蓝光币
641 枚
贡献
91 点
发表于 2018-11-9 00:11:43 | 显示全部楼层
谢谢楼主分享
回复

使用道具 举报

懒得打字嘛,点击右侧快捷回复 【右侧内容,后台自定义】
您需要登录后才可以回帖 登录 | 立即注册

本版积分规则

QQ|Archiver|手机版|小黑屋|中国高清网 |网站地图

GMT+8, 2019-1-22 08:44 , Processed in 0.123771 second(s), 41 queries .

Powered by HDchina X3.4

Copyright 2017-2018©HDchina.All right reserved

返回顶部 联系我们