你所知道的4K资源这里全部都有 4K电影 | 4K视频 | 4K壁纸 | 4K MV 怎么播放4K视频 | 4K电视演示片

教你玩转4K私人与家庭影院存储 NAS组装 | 黑群辉 家庭/影院Nas论坛

4K家庭影院信号源与视频设备知识 4K蓝光高清播放机 - 那个品牌好? 4K投影机论坛 | 4K电视机论坛

手把手教你搭建属于自己的家庭影院 4K家庭影院案例 | 家庭影院音频 4K家庭影院论坛

查看: 66|回复: 1

[犯罪片] 11点14分 11.14.2003.1080p.BluRay.x264-iKA 7.95GB

[复制链接]

级别:资源管理组

UID
1
注册时间
2017-10-20
最后登录
2018-12-14
听众
0
收听
0
主题
73005
蓝光币
104556 枚
贡献
142813 点
发表于 2018-10-12 01:49:26 | 显示全部楼层 |阅读模式

11点14分 11.14.2003.1080p.BluRay.x264-iKA 7.95GB-1.jpg
◎译  名 11点14分
◎片  名 11:14
◎年  代 2003
◎产  地 加拿大/美国
◎类  别 犯罪/悬疑
◎语  言 英语
◎上映日期 2003-05-16(戛纳电影节)
◎IMDb评分  7.2/10 from 41,132 users
◎IMDb链接  http://www.imdb.com/title/tt0331811/
◎豆瓣评分 7.6/10 from 27,481 users
◎豆瓣链接 https://movie.douban.com/subject/1394825/
◎片  长 85分钟(多伦多电影节l)/95分钟(德国)/86分钟(美国)
◎导  演 格雷格·马克斯 Greg Marcks
◎主  演 亨利·托马斯 Henry Thomas
      布莱克·赫伦 Blake Heron
      芭芭拉·赫希 Barbara Hershey
      克拉克·格雷格 Clark Gregg
      希拉里·斯万克 Hilary Swank
      肖恩·海托西 Shawn Hatosy
      斯塔克·桑德斯 Stark Sands
      科林·汉克斯 Colin Hanks
      本·福斯特 Ben Foster
      帕特里克·斯威兹 Patrick Swayze
      瑞切尔·蕾·库克 Rachael Leigh Cook
      杰森·席格尔 Jason Segel
      里克·戈麦斯 Rick Gomez

◎简  介

  杰克(亨利?托马斯 Henry Thomas 饰)夜间酒后驾驶,并用手机打电话聊天,却没曾想在穿过立交天桥时,一具尸身突如其来。便当伙计达菲(萧恩?哈特西 Shawn Hatosy 饰)因女友雪莉(瑞切尔?蕾?库克 Rachel Leigh Cook 饰)怀孕堕胎一事向同事步兹(希拉里?斯万克 Hillary Swank 饰)乞贷,假扮便当店被劫。而此前,一群少年从便当店买了过期的甜甜圈,夜晚飙车并向他人抛掷甜甜圈取乐。已筹算和达菲分手的雪莉掉臂父亲弗兰克(帕特里克?斯韦兹 Patrick Swayze 饰)的劝止,私行出门与新男友艾伦(布雷克? 海仑Blake Heron 饰)偷欢。一切一切的疏松事务,都在11:14分相互交织,互为因果,让终局出人料想,不成思议。

  1. Video
  2. ID                                       : 1
  3. Format                                   : AVC
  4. Format/Info                              : Advanced Video Codec
  5. Format profile                           : [url=/cdn-cgi/l/email-protection][email protected][/url]
  6. Format settings                          : CABAC / 5 Ref Frames
  7. Format settings, CABAC                   : Yes
  8. Format settings, ReFrames                : 5 frames
  9. Codec ID                                 : V_MPEG4/ISO/AVC
  10. Duration                                 : 1 h 25 min
  11. Bit rate                                 : 11.8 Mb/s
  12. Width                                    : 1 920 pixels
  13. Height                                   : 1 080 pixels
  14. Display aspect ratio                     : 16:9
  15. Frame rate mode                          : Constant
  16. Frame rate                               : 23.976 FPS
  17. Color space                              : YUV
  18. Chroma subsampling                       : 4:2:0
  19. Bit depth                                : 8 bits
  20. Scan type                                : Progressive
  21. Bits/(Pixel*Frame)                       : 0.237
  22. Stream size                              : 6.88 GiB (87%)
  23. Writing library                          : x264 core 65 r999 cc51047
  24. Encoding settings                        : cabac=1 / ref=5 / deblock=1:0:0 / analyse=0x3:0x133 / me=umh / subme=7 / psy_rd=1.0:0.0 / mixed_ref=1 / me_range=16 / chroma_me=1 / trellis=1 / 8x8dct=1 / cqm=2 / deadzone=21,11 / chroma_qp_offset=-2 / threads=3 / nr=0 / decimate=1 / mbaff=0 / bframes=3 / b_pyramid=1 / b_adapt=1 / b_bias=0 / direct=1 / wpredb=1 / keyint=250 / keyint_min=25 / scenecut=40(pre) / rc=2pass / bitrate=11760 / ratetol=1.0 / qcomp=0.60 / qpmin=10 / qpmax=51 / qpstep=4 / cplxblur=20.0 / qblur=0.5 / ip_ratio=1.40 / pb_ratio=1.30 / aq=1:1.00
  25. Language                                 : English
  26. Default                                  : Yes
  27. Forced                                   : No

  28. Audio
  29. ID                                       : 2
  30. Format                                   : DTS
  31. Format/Info                              : Digital Theater Systems
  32. Codec ID                                 : A_DTS
  33. Duration                                 : 1 h 25 min
  34. Bit rate mode                            : Constant
  35. Bit rate                                 : 1 509 kb/s
  36. Channel(s)                               : 6 channels
  37. Channel layout                           : C L R Ls Rs LFE
  38. Sampling rate                            : 48.0 kHz
  39. Frame rate                               : 93.750 FPS (512 SPF)
  40. Bit depth                                : 16 bits
  41. Compression mode                         : Lossy
  42. Stream size                              : 925 MiB (11%)
  43. Language                                 : English
  44. Default                                  : Yes
  45. Forced                                   : No
复制代码

复制代码

11点14分 11.14.2003.1080p.BluRay.x264-iKA 7.95GB-2.png 11点14分 11.14.2003.1080p.BluRay.x264-iKA 7.95GB-3.png 11点14分 11.14.2003.1080p.BluRay.x264-iKA 7.95GB-4.png





回复

使用道具 举报

级别:普通观众 Lv.2

UID
6712
注册时间
2018-9-6
最后登录
2018-12-13
听众
3
收听
0
主题
0
蓝光币
53 枚
贡献
0 点
发表于 2018-11-5 12:11:39 | 显示全部楼层
谢谢楼主分享
回复

使用道具 举报

懒得打字嘛,点击右侧快捷回复 【右侧内容,后台自定义】
您需要登录后才可以回帖 登录 | 立即注册

本版积分规则

QQ|Archiver|手机版|小黑屋|中国高清网 |网站地图

GMT+8, 2018-12-14 20:20 , Processed in 0.120378 second(s), 41 queries .

Powered by HDchina X3.4

Copyright 2017-2018©HDchina.All right reserved

返回顶部 联系我们