你所知道的4K资源这里全部都有 4K电影 | 4K视频 | 4K壁纸 | 4K MV 怎么播放4K视频 | 4K电视演示片

教你玩转4K私人与家庭影院存储 NAS组装 | 黑群辉 家庭/影院Nas论坛

4K家庭影院信号源与视频设备知识 4K蓝光高清播放机 - 那个品牌好? 4K投影机论坛 | 4K电视机论坛

手把手教你搭建属于自己的家庭影院 4K家庭影院案例 | 家庭影院音频 4K家庭影院论坛

查看: 20|回复: 1

[剧情片] 大都会/梦游大都会 Cosmopolis.2012.LiMiTED.1080p.BluRay.x264-AN0NYM0US 7.64GB

[复制链接]

级别:资源管理组

UID
1
注册时间
2017-10-20
最后登录
2018-10-22
听众
0
收听
0
主题
71065
蓝光币
91714 枚
贡献
139966 点
发表于 2018-10-12 01:49:09 | 显示全部楼层 |阅读模式

大城市/梦游大城市 Cosmopolis.2012.LiMiTED.1080p.BluRay.x264-AN0NYM0US 7.64GB-1.jpg
◎译  名 大城市/梦游大城市(台)/堕乐迷城(港)/大都会/国际大都会
◎片  名 Cosmopolis
◎年  代 2012
◎产  地 加拿大/法国/葡萄牙/意大利
◎类  别 剧情
◎语  言 英语
◎上映日期 2012-05-25(法国)
◎IMDb评分  5.0/10 from 40,935 users
◎IMDb链接  http://www.imdb.com/title/tt1480656/
◎豆瓣评分 5.2/10 from 6,002 users
◎豆瓣链接 https://movie.douban.com/subject/3893814/
◎片  长 108分钟
◎导  演 大卫·柯南伯格 David Cronenberg
◎主  演 罗伯特·帕丁森 Robert Pattinson
      杰伊·巴鲁切尔 Jay Baruchel
      保罗·吉亚玛提 Paul Giamatti
      莎拉·加顿 Sarah Gadon
      萨曼莎·莫顿 Samantha Morton
      凯文·杜兰 Kevin Durand
      朱丽叶·比诺什 Juliette Binoche

◎简  介

  未来,纽约,年轻巨富埃里克·帕克(罗伯特·帕丁森 Robert Pattinson 饰)坐在奢华轿车里,在保镳贴身庇护下,前往从小就熟悉的那家剃头店。一路上,他碰到五花八门的人,各类怪异的事:他的年轻妻子爱丽丝(莎拉·加顿 Sarah Gadon 饰)与他不即不离,只能在路上偶遇;一位中年女人(朱丽叶·比诺什 Juliette Binoche 饰)前来和他做爱然后奉告他艺术品信息;群众币延续升值令他眼睁睁看着财富损失,车窗外的曼哈顿逐步堕入一场暴乱,还有人在追踪他,似乎想要杀死他。进犯从一个蛋糕上升到子弹,空气中的一切布满发急和末世感,如期到达剃头店的帕克也想晓得这紊乱的一天该若何竣事……

◎获奖情况

  第65届戛纳电影节  (2012)
  主比赛单元 金棕榈奖(提名) 大卫·柯南伯格

  第3届豆瓣电影鑫像奖  (2013)
  豆渣单元 最渣男演员(外语)(提名) 罗伯特·帕丁森
  • Video
  • ID                                       : 1
  • Format                                   : AVC
  • Format/Info                              : Advanced Video Codec
  • Format profile                           : [email protected]
  • Format settings                          : CABAC / 4 Ref Frames
  • Format settings, CABAC                   : Yes
  • Format settings, ReFrames                : 4 frames
  • Codec ID                                 : V_MPEG4/ISO/AVC
  • Duration                                 : 1 h 48 min
  • Bit rate                                 : 8 540 kb/s
  • Width                                    : 1 920 pixels
  • Height                                   : 1 040 pixels
  • Display aspect ratio                     : 1.85:1
  • Frame rate mode                          : Constant
  • Frame rate                               : 23.976 (24000/1001) FPS
  • Color space                              : YUV
  • Chroma subsampling                       : 4:2:0
  • Bit depth                                : 8 bits
  • Scan type                                : Progressive
  • Bits/(Pixel*Frame)                       : 0.178
  • Stream size                              : 6.34 GiB (83%)
  • Writing library                          : x264 core 128 r2216 198a7ea
  • Encoding settings                        : cabac=1 / ref=4 / deblock=1:0:0 / analyse=0x3:0x113 / me=umh / subme=8 / psy=1 / psy_rd=1.00:0.00 / mixed_ref=1 / me_range=16 / chroma_me=1 / trellis=1 / 8x8dct=1 / cqm=0 / deadzone=21,11 / fast_pskip=1 / chroma_qp_offset=-2 / threads=9 / lookahead_threads=1 / sliced_threads=0 / nr=0 / decimate=1 / interlaced=0 / bluray_compat=0 / constrained_intra=0 / bframes=3 / b_pyramid=2 / b_adapt=2 / b_bias=0 / direct=3 / weightb=1 / open_gop=0 / weightp=2 / keyint=240 / keyint_min=24 / scenecut=40 / intra_refresh=0 / rc_lookahead=50 / rc=2pass / mbtree=1 / bitrate=8540 / ratetol=1.0 / qcomp=0.60 / qpmin=0 / qpmax=69 / qpstep=4 / cplxblur=20.0 / qblur=0.5 / ip_ratio=1.40 / aq=1:1.00
  • Language                                 : English
  • Default                                  : Yes
  • Forced                                   : No
  • Audio
  • ID                                       : 2
  • Format                                   : DTS
  • Format/Info                              : Digital Theater Systems
  • Codec ID                                 : A_DTS
  • Duration                                 : 1 h 48 min
  • Bit rate mode                            : Constant
  • Bit rate                                 : 1 509 kb/s
  • Channel(s)                               : 6 channels
  • Channel layout                           : C L R Ls Rs LFE
  • Sampling rate                            : 48.0 kHz
  • Frame rate                               : 93.750 FPS (512 SPF)
  • Bit depth                                : 16 bits
  • Compression mode                         : Lossy
  • Stream size                              : 1.15 GiB (15%)
  • Title                                    : English DTS 1509kbps
  • Language                                 : English
  • Default                                  : Yes
  • Forced                                   : No

复制代码

大城市/梦游大城市 Cosmopolis.2012.LiMiTED.1080p.BluRay.x264-AN0NYM0US 7.64GB-2.png 大城市/梦游大城市 Cosmopolis.2012.LiMiTED.1080p.BluRay.x264-AN0NYM0US 7.64GB-3.png 大城市/梦游大城市 Cosmopolis.2012.LiMiTED.1080p.BluRay.x264-AN0NYM0US 7.64GB-4.png





Cosmopolis.2012.LiMiTED.1080p.BluRay.x264-AN0NYM0US.torrent (76.93 KB, 下载次数: 0, 售价: 2 枚蓝光币)
回复

使用道具 举报

级别:普通观众 Lv.2

UID
8219
注册时间
2018-10-11
最后登录
2018-10-18
听众
0
收听
0
主题
0
蓝光币
14 枚
贡献
0 点
发表于 2018-10-12 14:29:21 | 显示全部楼层
感谢分享论坛有你更精彩
回复

使用道具 举报

您需要登录后才可以回帖 登录 | 立即注册

本版积分规则

QQ|Archiver|手机版|小黑屋|HDchina论坛 |网站地图

GMT+8, 2018-10-23 03:43 , Processed in 0.187948 second(s), 41 queries .

Powered by Discuz! X3.4

© 2001-2017 Comsenz Inc.

返回顶部 联系我们