你所知道的4K资源这里全部都有 4K电影 | 4K视频 | 4K壁纸 | 4K MV 怎么播放4K视频 | 4K电视演示片

教你玩转4K私人与家庭影院存储 NAS组装 | 黑群辉 家庭/影院Nas论坛

4K家庭影院信号源与视频设备知识 4K蓝光高清播放机 - 那个品牌好? 4K投影机论坛 | 4K电视机论坛

手把手教你搭建属于自己的家庭影院 4K家庭影院案例 | 家庭影院音频 4K家庭影院论坛

查看: 155|回复: 2

[科幻片] 匿名者/视界战 Anon.2018.1080p.BluRay.REMUX.AVC.DTS-HD.MA.5.1-FGT 16.73GB

[复制链接]

 成长值: 710

级别:资源管理组

注册时间
2017-10-20
最后登录
2019-3-22
听众
0
收听
0
主题
76497
蓝光币
134745 枚
贡献
146306 点
发表于 2018-10-5 00:54:50 | 显示全部楼层 |阅读模式

匿名者/视界战 Anon.2018.1080p.BluRay.REMUX.AVC.DTS-HD.MA.5.1-FGT 16.73GB-1.jpg
◎译  名 匿名者/视界战(台)/未来杀姬:Anon(港)/不多
◎片  名 Anon
◎年  代 2018
◎产  地 德国
◎类  别 科幻/惊悚
◎语  言 英语
◎上映日期 2018-05-04(德国)
◎IMDb评分  6.0/10 from 20,038 users
◎IMDb链接  http://www.imdb.com/title/tt5397194/
◎豆瓣评分 6.3/10 from 3,912 users
◎豆瓣链接 https://movie.douban.com/subject/26722224/
◎片  长 100分钟
◎导  演 安德鲁·尼科尔 Andrew Niccol
◎主  演 克里夫·欧文 Clive Owen
      阿曼达·塞弗里德 Amanda Seyfried
      科鲁姆·费奥瑞 Colm Feore
      索尼亚·瓦格尔 Sonya Walger
      马克·奥布莱恩 Mark O'Brien
      乔·平格 Joe Pingue
      伊多·戈德堡 Iddo Goldberg
      塞巴斯蒂安·皮戈特 Sebastian Pigott
      瑞秋·罗伯茨 Rachel Roberts
      马克·格拉齐尼 Marco Grazzini
      康拉德·科茨 Conrad Coates
      梅寇·阮 Mayko Nguyen
      萨拉·米蒂奇 Sara Mitich
      达蒙·伦延 Damon Runyan

◎简  介

  故事将聚焦欧文饰演的侦察生活在没有隐私,尽是匿名告发者的天下。那边的一切公然通明,任何行为都在政府窥测、监管之下。但是,当侦察发现塞弗里德饰演的年轻女子,在差人的监管下隐于无形后。侦察真正起头思考,政府的行动能否才真的是在犯罪。

  1. Video
  2. ID                                       : 1
  3. Format                                   : AVC
  4. Format/Info                              : Advanced Video Codec
  5. Format profile                           : [url=/cdn-cgi/l/email-protection][email protected][/url]
  6. Format settings                          : CABAC / 4 Ref Frames
  7. Format settings, CABAC                   : Yes
  8. Format settings, ReFrames                : 4 frames
  9. Codec ID                                 : V_MPEG4/ISO/AVC
  10. Duration                                 : 1 h 39 min
  11. Bit rate mode                            : Variable
  12. Bit rate                                 : 21.9 Mb/s
  13. Maximum bit rate                         : 30.0 Mb/s
  14. Width                                    : 1 920 pixels
  15. Height                                   : 1 080 pixels
  16. Display aspect ratio                     : 16:9
  17. Frame rate mode                          : Constant
  18. Frame rate                               : 23.976 (24000/1001) FPS
  19. Standard                                 : NTSC
  20. Color space                              : YUV
  21. Chroma subsampling                       : 4:2:0
  22. Bit depth                                : 8 bits
  23. Scan type                                : Progressive
  24. Bits/(Pixel*Frame)                       : 0.441
  25. Stream size                              : 15.3 GiB (91%)
  26. Title                                    : Anon.2018.1080p.BluRay.REMUX.AVC.DTS-HD.MA.5.1-FGT
  27. Language                                 : English
  28. Default                                  : No
  29. Forced                                   : No
  30. Color range                              : Limited
  31. Color primaries                          : BT.709
  32. Transfer characteristics                 : BT.709
  33. Matrix coefficients                      : BT.709

  34. Audio #1
  35. ID                                       : 2
  36. Format                                   : DTS
  37. Format/Info                              : Digital Theater Systems
  38. Format profile                           : MA / Core
  39. Codec ID                                 : A_DTS
  40. Duration                                 : 1 h 39 min
  41. Bit rate mode                            : Variable / Constant
  42. Bit rate                                 : 1 280 kb/s / 768 kb/s
  43. Channel(s)                               : 6 channels
  44. Channel positions                        : Front: L C R, Side: L R, LFE
  45. Sampling rate                            : 48.0 kHz
  46. Frame rate                               : 93.750 FPS (512 SPF)
  47. Bit depth                                : 16 bits
  48. Compression mode                         : Lossless / Lossy
  49. Stream size                              : 908 MiB (5%)
  50. Title                                    : Anon.2018.1080p.BluRay.REMUX.AVC.DTS-HD.MA.5.1-FGT
  51. Language                                 : English
  52. Default                                  : Yes
  53. Forced                                   : No

  54. Audio #2
  55. ID                                       : 3
  56. Format                                   : DTS
  57. Format/Info                              : Digital Theater Systems
  58. Codec ID                                 : A_DTS
  59. Duration                                 : 1 h 39 min
  60. Bit rate mode                            : Constant
  61. Bit rate                                 : 768 kb/s
  62. Channel(s)                               : 6 channels
  63. Channel positions                        : Front: L C R, Side: L R, LFE
  64. Sampling rate                            : 48.0 kHz
  65. Frame rate                               : 93.750 FPS (512 SPF)
  66. Bit depth                                : 16 bits
  67. Compression mode                         : Lossy
  68. Stream size                              : 548 MiB (3%)
  69. Title                                    : Anon.2018.1080p.BluRay.REMUX.AVC.DTS-HD.MA.5.1-FGT
  70. Language                                 : English
  71. Default                                  : No
  72. Forced                                   : No

  73. Menu
  74. 00:00:00.000                             : en:Chapter 01
  75. 00:21:58.859                             : en:Chapter 02
  76. 00:31:47.572                             : en:Chapter 03
  77. 00:41:29.236                             : en:Chapter 04
  78. 01:01:34.482                             : en:Chapter 05
  79. 01:14:49.735                             : en:Chapter 06
  80. 01:22:25.732                             : en:Chapter 07
  81. 01:32:05.603                             : en:Chapter 08
复制代码

复制代码

匿名者/视界战 Anon.2018.1080p.BluRay.REMUX.AVC.DTS-HD.MA.5.1-FGT 16.73GB-2.png 匿名者/视界战 Anon.2018.1080p.BluRay.REMUX.AVC.DTS-HD.MA.5.1-FGT 16.73GB-3.png 匿名者/视界战 Anon.2018.1080p.BluRay.REMUX.AVC.DTS-HD.MA.5.1-FGT 16.73GB-4.png





回复

使用道具 举报

级别:荣升主角 Lv.5

注册时间
2018-5-27
最后登录
2019-3-21
听众
4
收听
0
主题
0
蓝光币
17 枚
贡献
0 点
发表于 2018-10-6 19:06:35 | 显示全部楼层
感谢分享!
回复

使用道具 举报

级别:普通观众 Lv.2

注册时间
2018-3-27
最后登录
2019-1-27
听众
2
收听
0
主题
0
蓝光币
1 枚
贡献
0 点
发表于 2018-10-28 23:25:27 | 显示全部楼层
正在找,谢谢楼主
回复

使用道具 举报

懒得打字嘛,点击右侧快捷回复 【右侧内容,后台自定义】
您需要登录后才可以回帖 登录 | 立即注册

本版积分规则

QQ|Archiver|手机版|小黑屋|中国高清网 |网站地图

GMT+8, 2019-3-22 10:48 , Processed in 0.154099 second(s), 41 queries .

Powered by HDchina X3.4

Copyright 2017-2018©HDchina.All right reserved

返回顶部 联系我们