你所知道的4K资源这里全部都有 4K电影 | 4K视频 | 4K壁纸 | 4K MV 怎么播放4K视频 | 4K电视演示片

教你玩转4K私人与家庭影院存储 NAS组装 | 黑群辉 家庭/影院Nas论坛

4K家庭影院信号源与视频设备知识 4K蓝光高清播放机 - 那个品牌好? 4K投影机论坛 | 4K电视机论坛

手把手教你搭建属于自己的家庭影院 4K家庭影院案例 | 家庭影院音频 4K家庭影院论坛

查看: 643|回复: 0

[惊悚片] 鬼债/付给灵魂 Pay.the.Ghost.2015.1080p.BluRay.x264.DTS-RARBG 8.37 GiB

[复制链接]

 成长值: 1670

级别:资源管理组

注册时间
2017-10-20
最后登录
2019-6-25
听众
0
收听
0
主题
78745
蓝光币
29090 枚
贡献
3070 点
发表于 2018-3-2 14:10:26 | 显示全部楼层 |阅读模式

5 _( p: c& F) Q- `2 h
( w9 F+ s( i+ z, j* P" Y
/ F5 {8 I; l2 }" z1 B' g

; i0 C3 S# k" Q6 u3 _6 v
) S4 w; ^2 B/ ?6 |+ x" W
! l7 _) v2 B2 m! v6 [* U) g8 b

2 M; v3 ^/ j  G4 D0 r1 m
% Z  s- B1 ]0 q  e4 v6 O9 E+ Y

8 e) H% R/ p2 r* |* Q/ z
1 ^  C8 S4 B5 V9 [; c5 C8 M$ p+ k
◎译  名 
鬼债/付给灵魂 ( @; C9 J" t/ |2 F( p
◎片  名 Pay the Ghost- j) A5 T9 Q' n9 E* r+ u7 J* W) W
◎年  代 2015# w0 O2 E5 h. H
◎国  家 美国9 S! F) b' }. n, u% p3 {8 c
◎类  别 惊悚& N0 P' S# H+ F( f
◎语  言 英语8 \% v4 l& W6 P6 u0 O
◎字  幕 N/A
& b' ^& z2 Y5 q◎IMDB评分 5.2/10 from 3,164 users ' `1 a3 |2 }6 n( f) m
◎IMDB链接 http://www.imdb.com/title/tt3733778/
9 B+ f2 I) B. [% b3 y0 G◎文件格式 x264 + DTS
6 M9 b7 l, r9 t  D4 n9 r◎视频尺寸 1920 x 800
% H' n' n0 ?* h1 ]1 r◎文件巨细 8.37 GiB" ?: u; z( n- W5 n% t6 h
◎片  长 1h 34mn1 |7 f0 S- W1 V% h" Y) A
◎导  演 乌利·艾德 Uli Edel
) C& |# l1 D6 W" i( F0 s) ?1 ]  [◎主  演 尼古拉斯·凯奇 Nicolas Cage ...Mike Lawford & g! ~/ `0 j5 k1 P7 J
      莎拉·韦恩·卡丽丝 Sarah Wayne Callies ...Kristen 4 n  L: n, f% d, F
      Alex Mallari Jr.  ...Actor
: e/ q! F8 U0 X, d0 J' q( G: R' Q* N      Veronica Ferres ...Hannah
% S4 }, f5 b9 k1 j: j9 I      莱瑞克·本特 Lyriq Bent ...Detective Reynolds 4 \0 @4 f' Q0 j. }: f
      Jack Fulton ...Charlie   P( t$ X: }7 |, Q2 d' y+ i
      Sofia Wells ...Middle Child
- T) I: W% ~1 [; H- j0 n" h. [      Elizabeth Jeanne le Roux ...Mom
  d5 `  Q5 n7 U      Erin Boyes ...Emily
& |, J2 o7 B# ^( c- W8 E  n3 E      Ho Chow ...Dai Wok Cook . z& g7 a4 v& Z; h+ r. R- ~
      Mark Irvingsen ...Angry Villager   T* B* j, Y# W4 {/ l7 J1 O
      Maxwell McCabe-Lokos ..Mr. Moldanado
# J' l0 a- C3 K& Q/ c0 {+ }      Lauren Beatty ...Annie Sawquin * L- [% Q- q0 A) D6 I2 I
      Juan Carlos Velis ...Morales
2 L/ y9 p; e! Z1 G1 i) j7 x% Q7 ?' L* q      Omar Alex Khan ...Medical Examiner ! x: m- c; o% Y8 \. x. W

+ w7 X4 [& ~4 Q/ w% U
7 [( t" y/ a8 M8 I. O, m+ Y  Y( H! |! l% h* ?: k
◎简  介 
5 u4 x; {) B3 g8 v" {/ q8 N: C' g+ b) r% p; ~: e: q
: O4 M6 v* W: z0 ?* O
  大约一年前儿子在纽约的万圣节游行上从他身旁忽然消失后,麦克·科尔(尼古拉斯·凯奇 Nicolas Cage 饰)被一些关于儿子的可怕的气象弄得内心不安的,而且起头以各类可骇的方式感遭到他的存在。
5 r# J/ B' a- i1 V1 t0 V: m9 j, u

* A4 y% `! T; Q  为了展开行动,麦克结合他已经分家的妻子克里斯汀(莎拉·韦恩·卡丽丝 Sarah Wayne Callies 饰),在掉臂一切寻觅儿子的进程中他们揭开了连续串可怕的线索,未几他们就发现在每个万圣节都有一个邪恶的复仇之灵显现出来绑架儿童,假如不能在一个长久的时候之窗里救出儿子,他将会永久的丢失在鬼魂天下中.....
  1. + H( E* S: D1 u, D3 l
  2. Video
    & I; q1 ]/ N/ h/ S+ X: S
  3. ID                                       : 16 T% l$ }, S& C: }
  4. Format                                   : AVC7 I. S  p- m3 L
  5. Format/Info                              : Advanced Video Codec+ x9 M( K+ O. b2 f( h6 `
  6. Format profile                           : [email]High@L4.1[/email]
    6 H! R- B$ s0 V
  7. Format settings, CABAC                   : Yes" d9 U8 a& Y: L' K- Q
  8. Format settings, ReFrames                : 4 frames
    # o. B( b/ r' o0 _3 J! G* |4 g
  9. Codec ID                                 : V_MPEG4/ISO/AVC- l$ x/ l) Z% v
  10. Duration                                 : 1h 34mn
    $ l9 L6 u1 Z* ?  q5 u
  11. Bit rate                                 : 11.5 Mbps/ N9 h' R# ~2 x5 h* c
  12. Width                                    : 1 920 pixels* e8 s+ n. I% J/ l) t7 `3 {
  13. Height                                   : 800 pixels5 i+ k* J1 g* X% R; e  i' I, s# U1 v
  14. Display aspect ratio                     : 2.40:1$ i6 \! B: i6 f) K+ {# V$ I3 P
  15. Frame rate mode                          : Constant
    , \  w3 g( H) J: \0 e
  16. Frame rate                               : 23.976 fps
    # U4 N6 f  G& M% f5 @6 n1 u# A
  17. Color space                              : YUV
    % E# @5 p' K, _$ ?- M. Y; b
  18. Chroma subsampling                       : 4:2:0
    0 a: o8 G, B# G1 }7 H
  19. Bit depth                                : 8 bits
    ' t5 {) X) K3 D# ], a$ g3 F5 z, Z
  20. Scan type                                : Progressive
    : A1 w; y/ J6 P; W% Q( d
  21. Bits/(Pixel*Frame)                       : 0.312
    8 x( h5 `( z' m4 R# [
  22. Stream size                              : 7.21 GiB (86%)$ T& y: i' o; q0 X7 F' |+ }
  23. Title                                    : Pay.the.Ghost.2015.1080p.BluRay.x264.DTS-RARBG
    + I& R! C; w% c( e) s9 ^( c; U
  24. Writing library                          : x264 core 146 r2555 0c21480# f1 F  l( e2 _5 X: S& j
  25. Encoding settings                        : cabac=1 / ref=4 / deblock=1:-2:-2 / analyse=0x3:0x113 / me=umh / subme=7 / psy=1 / psy_rd=1.00:0.15 / mixed_ref=1 / me_range=16 / chroma_me=1 / trellis=1 / 8x8dct=1 / cqm=0 / deadzone=21,11 / fast_pskip=1 / chroma_qp_offset=-3 / threads=12 / lookahead_threads=3 / sliced_threads=0 / nr=0 / decimate=1 / interlaced=0 / bluray_compat=0 / constrained_intra=0 / bframes=3 / b_pyramid=2 / b_adapt=2 / b_bias=0 / direct=3 / weightb=1 / open_gop=0 / weightp=2 / keyint=250 / keyint_min=25 / scenecut=40 / intra_refresh=0 / rc_lookahead=50 / rc=abr / mbtree=1 / bitrate=11500 / ratetol=1.0 / qcomp=0.60 / qpmin=0 / qpmax=69 / qpstep=4 / vbv_maxrate=31250 / vbv_bufsize=31250 / nal_hrd=none / filler=0 / ip_ratio=1.40 / aq=1:1.00; r6 U7 t) Z% G8 {
  26. Language                                 : English
    3 R) m  u( |) e
  27. Default                                  : Yes
    " A6 m/ H# k5 ^' O" x* N
  28. Forced                                   : No0 R8 k* v' o( f* l

  29. 1 n  n! b+ Y0 R3 d, \. V8 Z
  30. Audio3 e4 c0 \' R/ s  L) W: }  p$ w
  31. ID                                       : 2% ~7 n' g; _6 d5 L0 w
  32. Format                                   : DTS: W! t+ F: ]" P9 ?
  33. Format/Info                              : Digital Theater Systems
    , T6 k- h, i. U! C. M6 ~% |& E- o& Y" G
  34. Mode                                     : 16
    * c) j' z, X. f4 y
  35. Format settings, Endianness              : Big
    ( P/ e' w9 K  j) b2 s  Z3 [/ R
  36. Codec ID                                 : A_DTS/ e" y5 N' o5 x# Z, y
  37. Duration                                 : 1h 34mn
    $ u0 _- e* g4 O/ w7 D% ?* c% t1 D
  38. Bit rate mode                            : Constant
    ) X- w% Y3 w9 h' I% a9 {8 V
  39. Bit rate                                 : 1 509 Kbps3 u0 f2 Q; v. Z: T1 U
  40. Channel(s)                               : 6 channels8 f/ ^' `+ o8 O! C0 I
  41. Channel positions                        : Front: L C R, Side: L R, LFE, ^# y6 Z  e8 Q+ P
  42. Sampling rate                            : 48.0 KHz
    ! N  _/ c% r: |* a! |& {
  43. Bit depth                                : 24 bits
    . t' e( E4 }2 C0 R- F+ \
  44. Compression mode                         : Lossy" A4 I$ M; s4 Y, \, h0 X; Z8 Y" V
  45. Stream size                              : 1 016 MiB (12%)2 D- D, f# k' n+ K& R& ^9 P
  46. Title                                    : Pay.the.Ghost.2015.1080p.BluRay.x264.DTS-RARBG
    # |( S$ \" Q+ F
  47. Language                                 : English
    ) H* @! \0 b- J8 t
  48. Default                                  : Yes
    - Q' y( ?! c/ k7 _
  49. Forced                                   : No
    / [$ C( x1 @9 R5 A' S; f1 {  K
  50. ! E4 d% \5 n1 w$ ^, w/ K

  51. # Q3 o4 ]' e. \  b2 H0 i

  52. / ~& D3 o# {. g+ m3 Q

  53. 2 T4 ?: L# C# [" y7 [8 S
  54. " B2 a! j% |1 Q, j# {9 D# p
复制代码
3 N6 @1 f' v8 Y8 N
27918543366198222369_thumb.png
, M- X' b& x  J
1 |" n  R, h6 ^ 60744498823753628427_thumb.png
, c% R7 f3 D0 F* h; G2 X
/ X! E0 O! b  w  H# [ 70441522048623039722_thumb.png + a4 E9 e$ q; G+ |4 q* L0 H; Q
. ~5 d7 q8 ^+ [4 L# q- r+ w- }
28674549847503307416_thumb.png ) [# M6 L: \/ G
+ D# q/ L+ y; G9 o
89177641691446140177_thumb.png
. K. j# d( ]! R  m+ x; N, \' E* X# e! Z6 w/ y0 f+ G* j, j/ M
98464020407068943119_thumb.png
$ o& T, U! f, n1 @; ^8 P" t* P- m8 ]) O  i; S( m
- q+ K# F3 F. w' J5 ?
% r( x8 }0 x8 p5 g& [3 Z

) `; ?4 Q$ r9 b! j3 U
' `5 v# p4 S; J
回复

使用道具 举报

*滑动验证:
懒得打字嘛,点击右侧快捷回复 【右侧内容,后台自定义】
您需要登录后才可以回帖 登录 | 立即注册

本版积分规则

QQ|Archiver|手机版|小黑屋| 中国高清网 |网站地图

GMT+8, 2019-6-25 19:57 , Processed in 0.208273 second(s), 47 queries .

Powered by HDchina X3.4

Copyright 2017-2019©HDchina.All right reserved

返回顶部 联系我们