你所知道的4K资源这里全部都有 4K电影 | 4K视频 | 4K壁纸 | 4K MV 怎么播放4K视频 | 4K电视演示片

教你玩转4K私人与家庭影院存储 NAS组装 | 黑群辉 家庭/影院Nas论坛

4K家庭影院信号源与视频设备知识 4K蓝光高清播放机 - 那个品牌好? 4K投影机论坛 | 4K电视机论坛

手把手教你搭建属于自己的家庭影院 4K家庭影院案例 | 家庭影院音频 4K家庭影院论坛

查看: 350|回复: 0

[惊悚片] 鬼债/付给灵魂 Pay.the.Ghost.2015.1080p.BluRay.x264.DTS-RARBG 8.37 GiB

[复制链接]

级别:资源管理组

UID
1
注册时间
2017-10-20
最后登录
2018-10-22
听众
0
收听
0
主题
71065
蓝光币
91714 枚
贡献
139966 点
发表于 2018-3-2 14:10:26 | 显示全部楼层 |阅读模式
" Z- k0 x5 Y! t; F+ X0 C  f/ i

6 o1 j! g/ b! P3 ?4 U- a/ o- K$ H+ J0 N& [8 \( B% L0 u

/ J, n& p4 K- J# H  o7 ]( t" M6 S) Y# T; m) B
! @8 `4 v  @* F9 r& z  n9 i5 |" O
" D0 u0 e! O. a, d2 D2 j6 y2 |
/ V3 y( N5 t. Z
. h- `) T3 S+ S+ ]( X; r

2 S6 b7 Y& F. M! ]  }/ t& `3 O◎译  名 
鬼债/付给灵魂
4 w" L$ E# O; b( K◎片  名 Pay the Ghost
8 j' t6 }3 J" x. P- o9 v◎年  代 20155 Q: a# t9 b- _7 e4 {
◎国  家 美国
* u. A' Y/ B' _' L6 I  J7 \0 D◎类  别 惊悚& p- O  S; x* F3 M
◎语  言 英语4 Y' V, Q6 W/ \' f9 v
◎字  幕 N/A
3 k% p  _6 P+ h% a, ?. g◎IMDB评分 5.2/10 from 3,164 users / [) C/ y& ?% l$ |0 |
◎IMDB链接 http://www.imdb.com/title/tt3733778/" ~& {6 G, ]2 p, o6 j- M6 H6 O1 v
◎文件格式 x264 + DTS
4 W( G5 z! s( m3 N: t& ~/ x$ C◎视频尺寸 1920 x 800
3 R" E- V0 g4 M" M◎文件巨细 8.37 GiB
$ i- q4 x$ k% m6 r◎片  长 1h 34mn( n7 ~& T( Q( o6 I" \8 @/ P* \
◎导  演 乌利·艾德 Uli Edel
- Z6 U- b+ [% a3 `$ d! `! j. F◎主  演 尼古拉斯·凯奇 Nicolas Cage ...Mike Lawford ! O4 c1 r! `, A9 H7 H; i
      莎拉·韦恩·卡丽丝 Sarah Wayne Callies ...Kristen
" T: D) ~2 x. Y+ b- h      Alex Mallari Jr.  ...Actor
' T: u4 b! `! M# T# a      Veronica Ferres ...Hannah 4 d( ~4 h8 h+ \  V% e
      莱瑞克·本特 Lyriq Bent ...Detective Reynolds
: u# A4 ?5 Z7 b' O( J. W5 l      Jack Fulton ...Charlie ) d1 B" U1 l. _* W5 P0 s% [" |0 L
      Sofia Wells ...Middle Child
" j0 f4 G* ~' m/ X      Elizabeth Jeanne le Roux ...Mom / q/ {8 u, D( s! ]
      Erin Boyes ...Emily
# M/ Q2 _8 }1 _$ [      Ho Chow ...Dai Wok Cook
$ L$ M; E  T; z8 q6 p* a# F( h      Mark Irvingsen ...Angry Villager % c2 R! y0 y4 ]  t/ @4 p' X4 v
      Maxwell McCabe-Lokos ..Mr. Moldanado 3 g" I! }2 ?& [) Q
      Lauren Beatty ...Annie Sawquin
: Q/ Y( f7 `. k8 B8 i      Juan Carlos Velis ...Morales 3 V1 G6 A  k8 z8 f1 h( a" e
      Omar Alex Khan ...Medical Examiner
1 i7 j7 F( j; U2 L: F# ]: S) t5 y
) C! b, j% G9 t# [) o5 b6 \9 w& H: P: `

2 }+ g& a* C7 \/ h% m. r( a8 j◎简  介 / T: L. V3 Y9 H( a
5 f, _: O4 u5 I

1 B' v4 q7 m* r) f+ _/ m, F  大约一年前儿子在纽约的万圣节游行上从他身旁忽然消失后,麦克·科尔(尼古拉斯·凯奇 Nicolas Cage 饰)被一些关于儿子的可怕的气象弄得内心不安的,而且起头以各类可骇的方式感遭到他的存在。3 j0 v: B( b, x6 }3 e- `
% c' {" T9 k$ S& [& J; U% q! R
" `& W: r* b+ |1 `
  为了展开行动,麦克结合他已经分家的妻子克里斯汀(莎拉·韦恩·卡丽丝 Sarah Wayne Callies 饰),在掉臂一切寻觅儿子的进程中他们揭开了连续串可怕的线索,未几他们就发现在每个万圣节都有一个邪恶的复仇之灵显现出来绑架儿童,假如不能在一个长久的时候之窗里救出儿子,他将会永久的丢失在鬼魂天下中.....
  • Video
  • ID                                       : 1
  • Format                                   : AVC
  • Format/Info                              : Advanced Video Codec
  • Format profile                           : High@L4.1
  • Format settings, CABAC                   : Yes
  • Format settings, ReFrames                : 4 frames
  • Codec ID                                 : V_MPEG4/ISO/AVC
  • Duration                                 : 1h 34mn
  • Bit rate                                 : 11.5 Mbps
  • Width                                    : 1 920 pixels
  • Height                                   : 800 pixels
  • Display aspect ratio                     : 2.40:1
  • Frame rate mode                          : Constant
  • Frame rate                               : 23.976 fps
  • Color space                              : YUV
  • Chroma subsampling                       : 4:2:0
  • Bit depth                                : 8 bits
  • Scan type                                : Progressive
  • Bits/(Pixel*Frame)                       : 0.312
  • Stream size                              : 7.21 GiB (86%)
  • Title                                    : Pay.the.Ghost.2015.1080p.BluRay.x264.DTS-RARBG
  • Writing library                          : x264 core 146 r2555 0c21480
  • Encoding settings                        : cabac=1 / ref=4 / deblock=1:-2:-2 / analyse=0x3:0x113 / me=umh / subme=7 / psy=1 / psy_rd=1.00:0.15 / mixed_ref=1 / me_range=16 / chroma_me=1 / trellis=1 / 8x8dct=1 / cqm=0 / deadzone=21,11 / fast_pskip=1 / chroma_qp_offset=-3 / threads=12 / lookahead_threads=3 / sliced_threads=0 / nr=0 / decimate=1 / interlaced=0 / bluray_compat=0 / constrained_intra=0 / bframes=3 / b_pyramid=2 / b_adapt=2 / b_bias=0 / direct=3 / weightb=1 / open_gop=0 / weightp=2 / keyint=250 / keyint_min=25 / scenecut=40 / intra_refresh=0 / rc_lookahead=50 / rc=abr / mbtree=1 / bitrate=11500 / ratetol=1.0 / qcomp=0.60 / qpmin=0 / qpmax=69 / qpstep=4 / vbv_maxrate=31250 / vbv_bufsize=31250 / nal_hrd=none / filler=0 / ip_ratio=1.40 / aq=1:1.00
  • Language                                 : English
  • Default                                  : Yes
  • Forced                                   : No
  • Audio
  • ID                                       : 2
  • Format                                   : DTS
  • Format/Info                              : Digital Theater Systems
  • Mode                                     : 16
  • Format settings, Endianness              : Big
  • Codec ID                                 : A_DTS
  • Duration                                 : 1h 34mn
  • Bit rate mode                            : Constant
  • Bit rate                                 : 1 509 Kbps
  • Channel(s)                               : 6 channels
  • Channel positions                        : Front: L C R, Side: L R, LFE
  • Sampling rate                            : 48.0 KHz
  • Bit depth                                : 24 bits
  • Compression mode                         : Lossy
  • Stream size                              : 1 016 MiB (12%)
  • Title                                    : Pay.the.Ghost.2015.1080p.BluRay.x264.DTS-RARBG
  • Language                                 : English
  • Default                                  : Yes
  • Forced                                   : No

  • 1 F9 Y' i1 d' ~
1 v" Q1 d$ A1 C1 l( Q8 h8 V
27918543366198222369_thumb.png
4 Z( r3 Q+ G. N$ A% Q: X* i0 g* g: ~( s3 _7 D! y
60744498823753628427_thumb.png
0 I$ O% n7 J5 d+ i: s4 O
& G8 `; C! t( }3 `# r 70441522048623039722_thumb.png " y) \* a! y6 d1 r
, u: q/ h9 ?$ l
28674549847503307416_thumb.png ; L( Y$ L" Y' `  P
' n6 J: V$ {, d! p$ h* A
89177641691446140177_thumb.png
( g$ C& A' U( j$ C' Q6 ~1 H0 e$ y* I+ J) `0 n
98464020407068943119_thumb.png
. A' K" Y! w5 w3 M+ K! ^* Y( m7 n2 ?. B, [4 w
$ ?% T( S/ s- H, t

9 ?5 S  a4 K" a( l$ R% K; a! [: v$ x+ a. r) w
' q# @- p4 f+ k3 }
Pay.the.Ghost.2015.1080p.BluRay.x264.DTS-RARBG.torrent (84.33 KB, 下载次数: 0, 售价: 2 枚蓝光币)
回复

使用道具 举报

您需要登录后才可以回帖 登录 | 立即注册

本版积分规则

QQ|Archiver|手机版|小黑屋|HDchina论坛 |网站地图

GMT+8, 2018-10-23 02:53 , Processed in 0.177274 second(s), 41 queries .

Powered by Discuz! X3.4

© 2001-2017 Comsenz Inc.

返回顶部 联系我们