你所知道的4K资源这里全部都有 4K电影 | 4K视频 | 4K壁纸 | 4K MV 怎么播放4K视频 | 4K电视演示片

教你玩转4K私人与家庭影院存储 NAS组装 | 黑群辉 家庭/影院Nas论坛

4K家庭影院信号源与视频设备知识 4K蓝光高清播放机 - 那个品牌好? 4K投影机论坛 | 4K电视机论坛

手把手教你搭建属于自己的家庭影院 4K家庭影院案例 | 家庭影院音频 4K家庭影院论坛

查看: 427|回复: 4

[8bit.SDR] 银翼杀手2049/银翼杀手2 Blade.Runner.2049.2017.2160p.BluRay.x264.8bit.SDR.DTS-HD.MA.TrueHD.7.1.Atmos-SWTYBLZ 36.04GB

[复制链接]

 成长值: 1370

级别:资源管理组

注册时间
2017-10-20
最后登录
2019-5-25
听众
0
收听
0
主题
77670
蓝光币
19549 枚
贡献
1991 点
发表于 2018-1-17 17:22:58 | 显示全部楼层 |阅读模式
051420y9ytzq9e91zammet.jpg
◎译  名 银翼杀手2049/银翼杀手2
◎片  名 Blade Runner 2049
◎年  代 2017
◎产  地 美国/加拿大/英国
◎类  别 剧情/科幻/惊悚
◎语  言 英语/芬兰语/日语/匈牙利语/俄语/索马里语
◎上映日期 2017-10-06(美国)/2017-10-27(中国大陆)
◎IMDb评分  8.3/10 from 208,373 users
◎IMDb链接  http://www.imdb.com/title/tt1856101/
◎豆瓣评分 8.4/10 from 153,488 users
◎豆瓣链接 https://movie.douban.com/subject/10512661/
◎片  长 163分钟/162分钟(中国大陆)
◎导  演 丹尼斯·维伦纽瓦 Denis Villeneuve
◎主  演 瑞恩·高斯林 Ryan Gosling
      哈里森·福特 Harrison Ford
      安娜·德·阿玛斯 Ana de Armas
      西尔维娅·侯克斯 Sylvia Hoeks
      罗宾·怀特 Robin Wright
      杰瑞德·莱托 Jared Leto
      戴夫·巴蒂斯塔 Dave Bautista
      麦肯兹·戴维斯 Mackenzie Davis
      卡拉·朱里 Carla Juri
      爱德华·詹姆斯·奥莫斯 Edward James Olmos
      巴克德·阿巴蒂 Barkhad Abdi
      大卫·达斯马齐连 David Dastmalchian
      西娅姆·阿巴斯 Hiam Abbass
      连尼·詹姆斯 Lennie James
      马克·阿诺德 Mark Arnold
      肖恩·杨 Sean Young

◎简  介

  故事发生在大断电30年后。复制人K(瑞恩·高斯林 Ryan Gosling 饰)是新一代的银翼杀手,在现在的天下里,人类和复制人之间的界限分别的加倍明白,复制人从刚一制造出来就被灌输了办事于人类的思惟,绝对不被答应发生人类的豪情。
  某日,一具女性复制人的遗骨被挖掘了出来,令陆军中尉乔伊(罗宾·怀特 Robin Wright 饰)感应震动的是,这名女性复制人生前不但怀过孕,还将孩子生了下来,这个孩子的存在将会完全破坏政府惨淡经营的法则和次序。乔伊号令K找出这个孩子,并将他杀死。在一间烧毁的农场里,K发现了一些线索,但是,这些线索居然和他被植入的曩昔的记忆有着千丝万缕的关联。与此同时,复制人尼安德(杰瑞德·莱托 Jared Leto 饰)和他的手下拉芙(西尔维娅·侯克斯 Sylvia Hoeks 饰)也在寻觅着这个孩子的着落。

◎获奖情况

  第71届英国电影学院奖  (2018)
  电影奖 最好导演(提名) 丹尼斯·维伦纽瓦
  电影奖 最好摄影(提名) 罗杰·狄金斯
  电影奖 最好剪辑(提名)
  电影奖 最好化装/发型(提名)
  电影奖 最好艺术指导(提名)
  电影奖 最好特别视觉结果(提名)
  电影奖 最好原创音乐(提名) 汉斯·季默 / 本杰明·沃菲斯齐
  电影奖 最好音效(提名)

  第32届美国摄影协会奖  (2018)
  电影长片最好摄影(提名) 罗杰·狄金斯

  第22届美国艺术指导工会奖  (2018)
  电影奖 最好空想电影艺术指导(提名)

  第23届美国批评家挑选电影奖  (2018)
  最好科幻/可骇片(提名)
  最好摄影 罗杰·狄金斯
  最好剪辑(提名)
  最好配乐(提名)
  最好美术指导(提名)
  最好打扮设想(提名)
  最好视觉结果(提名)

  第22届金卫星奖  (2018)
  电影部分 最好摄影(提名) 罗杰·狄金斯
  电影部分 最好视觉结果(提名)
  电影部分 最好音效(提名)
  电影部分 最好美术指导(提名)

  第52届美国国家影评人协会奖  (2018)
  最好摄影 罗杰·狄金斯

  第16届华盛顿影评人协会奖  (2017)
  最好摄影 罗杰·狄金斯
  最好配乐 汉斯·季默 / 本杰明·沃菲斯齐
  最好艺术指导 亚历山德拉·奎尔佐拉 / 丹尼斯·加斯纳

  第43届洛杉矶影评人协会奖  (2017)
  最好艺术指导 丹尼斯·加斯纳

  第4届豆瓣电影年度榜单  (2017)
  评分最高的外语电影(提名)
  评分最高的科幻/行动片
  10月最受关注电影(提名)



  1. Video
  2. ID                                       : 1
  3. Format                                   : AVC
  4. Format/Info                              : Advanced Video Codec
  5. Format profile                           : [url=mailto:High@L5.1]High@L5.1[/url]
  6. Format settings                          : CABAC / 5 Ref Frames
  7. Format settings, CABAC                   : Yes
  8. Format settings, RefFrames               : 5 frames
  9. Codec ID                                 : V_MPEG4/ISO/AVC
  10. Duration                                 : 2 h 43 min
  11. Bit rate                                 : 22.0 Mb/s
  12. Width                                    : 3 840 pixels
  13. Height                                   : 1 600 pixels
  14. Display aspect ratio                     : 2.40:1
  15. Frame rate mode                          : Constant
  16. Frame rate                               : 23.976 (24000/1001) FPS
  17. Color space                              : YUV
  18. Chroma subsampling                       : 4:2:0
  19. Bit depth                                : 8 bits
  20. Scan type                                : Progressive
  21. Bits/(Pixel*Frame)                       : 0.149
  22. Stream size                              : 25.1GB (70%)
  23. Title                                    : Blade.Runner.2049.2017.2160p.BluRay.x264.8bit.SDR.DTS-HD.MA.TrueHD.7.1.Atmos-SWTYBLZ
  24. Writing library                          : x264 core 148 r2748 97eaef2
  25. Encoding settings                        : cabac=1 / ref=5 / deblock=1:-1:-1 / analyse=0x3:0x113 / me=umh / subme=10 / psy=1 / psy_rd=1.00:0.15 / mixed_ref=1 / me_range=48 / chroma_me=1 / trellis=2 / 8x8dct=1 / cqm=0 / deadzone=21,11 / fast_pskip=1 / chroma_qp_offset=-3 / threads=50 / lookahead_threads=4 / sliced_threads=0 / nr=0 / decimate=0 / interlaced=0 / bluray_compat=0 / constrained_intra=0 / bframes=3 / b_pyramid=2 / b_adapt=2 / b_bias=0 / direct=3 / weightb=1 / open_gop=0 / weightp=2 / keyint=250 / keyint_min=23 / scenecut=40 / intra_refresh=0 / rc_lookahead=50 / rc=crf / mbtree=1 / crf=18.0 / qcomp=0.60 / qpmin=0 / qpmax=69 / qpstep=4 / ip_ratio=1.40 / aq=1:1.00
  26. Default                                  : Yes
  27. Forced                                   : No

  28. Audio #1
  29. ID                                       : 2
  30. Format                                   : TrueHD
  31. Format profile                           : TrueHD+Atmos / TrueHD
  32. Codec ID                                 : A_TRUEHD
  33. Duration                                 : 2 h 43 min
  34. Bit rate mode                            : Variable
  35. Bit rate                                 : 4 597 kb/s
  36. Maximum bit rate                         : 5 022 kb/s
  37. Channel(s)                               : Object Based / 8 channels
  38. Channel positions                        : Object Based / Front: L C R, Side: L R, Back: L R, LFE
  39. Sampling rate                            :  / 48.0 kHz
  40. Frame rate                               : 1 200.000 FPS (40 SPF)
  41. Compression mode                         : Lossless
  42. Stream size                              : 5.25GB (15%)
  43. Title                                    : Blade.Runner.2049.2017.2160p.BluRay.x264.8bit.SDR.DTS-HD.MA.TrueHD.7.1.Atmos-SWTYBLZ
  44. Language                                 : English
  45. Default                                  : Yes
  46. Forced                                   : No

  47. Audio #2
  48. ID                                       : 3
  49. Format                                   : DTS
  50. Format/Info                              : Digital Theater Systems
  51. Format profile                           : MA / Core
  52. Codec ID                                 : A_DTS
  53. Duration                                 : 2 h 43 min
  54. Bit rate mode                            : Variable / Constant
  55. Bit rate                                 : 3 840 kb/s / 1 509 kb/s
  56. Channel(s)                               : 8 channels / 6 channels
  57. Channel positions                        : Front: L C R, Side: L R, Back: L R, LFE / Front: L C R, Side: L R, LFE
  58. Sampling rate                            : 48.0 kHz
  59. Frame rate                               : 93.750 FPS (512 SPF)
  60. Bit depth                                : 24 bits
  61. Compression mode                         : Lossless / Lossy
  62. Stream size                              : 4.37GB (12%)
  63. Title                                    : Blade.Runner.2049.2017.2160p.BluRay.x264.8bit.SDR.DTS-HD.MA.TrueHD.7.1.Atmos-SWTYBLZ
  64. Language                                 : English
  65. Default                                  : No
  66. Forced                                   : No

  67. Audio #3
  68. ID                                       : 4
  69. Format                                   : AC-3
  70. Format/Info                              : Audio Coding 3
  71. Codec ID                                 : A_AC3
  72. Duration                                 : 2 h 43 min
  73. Bit rate mode                            : Constant
  74. Bit rate                                 : 640 kb/s
  75. Channel(s)                               : 6 channels
  76. Channel positions                        : Front: L C R, Side: L R, LFE
  77. Sampling rate                            : 48.0 kHz
  78. Frame rate                               : 31.250 FPS (1536 SPF)
  79. Bit depth                                : 16 bits
  80. Compression mode                         : Lossy
  81. Stream size                              : 748 MiB (2%)
  82. Title                                    : Blade.Runner.2049.2017.2160p.BluRay.x264.8bit.SDR.DTS-HD.MA.TrueHD.7.1.Atmos-SWTYBLZ
  83. Language                                 : English
  84. Service kind                             : Complete Main
  85. Default                                  : No
  86. Forced                                   : No

  87. Text #1
  88. ID                                       : 5
  89. Format                                   : UTF-8
  90. Codec ID                                 : S_TEXT/UTF8
  91. Codec ID/Info                            : UTF-8 Plain Text
  92. Duration                                 : 2 h 26 min
  93. Bit rate                                 : 24 b/s
  94. Count of elements                        : 974
  95. Stream size                              : 26.7 KiB (0%)
  96. Title                                    : English-SRT
  97. Language                                 : English
  98. Default                                  : Yes
  99. Forced                                   : No

  100. Text #2
  101. ID                                       : 6
  102. Format                                   : PGS
  103. Muxing mode                              : zlib
  104. Codec ID                                 : S_HDMV/PGS
  105. Codec ID/Info                            : Picture based subtitle format used on BDs/HD-DVDs
  106. Duration                                 : 2 h 32 min
  107. Bit rate                                 : 14.9 kb/s
  108. Count of elements                        : 1950
  109. Stream size                              : 16.3 MiB (0%)
  110. Title                                    : English-PGS
  111. Language                                 : English
  112. Default                                  : No
  113. Forced                                   : No

  114. Text #3
  115. ID                                       : 7
  116. Format                                   : PGS
  117. Muxing mode                              : zlib
  118. Codec ID                                 : S_HDMV/PGS
  119. Codec ID/Info                            : Picture based subtitle format used on BDs/HD-DVDs
  120. Duration                                 : 2 h 32 min
  121. Bit rate                                 : 14.9 kb/s
  122. Count of elements                        : 1950
  123. Stream size                              : 16.3 MiB (0%)
  124. Title                                    : English-PGS
  125. Language                                 : English
  126. Default                                  : No
  127. Forced                                   : No

  128. Text #4
  129. ID                                       : 8
  130. Format                                   : PGS
  131. Muxing mode                              : zlib
  132. Codec ID                                 : S_HDMV/PGS
  133. Codec ID/Info                            : Picture based subtitle format used on BDs/HD-DVDs
  134. Duration                                 : 2 h 34 min
  135. Bit rate                                 : 18.6 kb/s
  136. Count of elements                        : 2458
  137. Stream size                              : 20.5 MiB (0%)
  138. Title                                    : English-SDH-PGS
  139. Language                                 : English
  140. Default                                  : No
  141. Forced                                   : No

  142. Text #5
  143. ID                                       : 9
  144. Format                                   : PGS
  145. Muxing mode                              : zlib
  146. Codec ID                                 : S_HDMV/PGS
  147. Codec ID/Info                            : Picture based subtitle format used on BDs/HD-DVDs
  148. Duration                                 : 2 h 42 min
  149. Bit rate                                 : 8 520 b/s
  150. Count of elements                        : 2097
  151. Stream size                              : 9.91 MiB (0%)
  152. Title                                    : Arabic-PGS
  153. Language                                 : Arabic
  154. Default                                  : No
  155. Forced                                   : No

  156. Text #6
  157. ID                                       : 10
  158. Format                                   : PGS
  159. Muxing mode                              : zlib
  160. Codec ID                                 : S_HDMV/PGS
  161. Codec ID/Info                            : Picture based subtitle format used on BDs/HD-DVDs
  162. Duration                                 : 2 h 42 min
  163. Bit rate                                 : 15.6 kb/s
  164. Count of elements                        : 2078
  165. Stream size                              : 18.2 MiB (0%)
  166. Title                                    : Bulgarian-PGS
  167. Language                                 : Bulgarian
  168. Default                                  : No
  169. Forced                                   : No

  170. Text #7
  171. ID                                       : 11
  172. Format                                   : PGS
  173. Muxing mode                              : zlib
  174. Codec ID                                 : S_HDMV/PGS
  175. Codec ID/Info                            : Picture based subtitle format used on BDs/HD-DVDs
  176. Duration                                 : 2 h 42 min
  177. Bit rate                                 : 13.3 kb/s
  178. Count of elements                        : 2092
  179. Stream size                              : 15.5 MiB (0%)
  180. Title                                    : Chinese-PGS
  181. Language                                 : Chinese
  182. Default                                  : No
  183. Forced                                   : No

  184. Text #8
  185. ID                                       : 12
  186. Format                                   : PGS
  187. Muxing mode                              : zlib
  188. Codec ID                                 : S_HDMV/PGS
  189. Codec ID/Info                            : Picture based subtitle format used on BDs/HD-DVDs
  190. Duration                                 : 2 h 42 min
  191. Bit rate                                 : 12.4 kb/s
  192. Count of elements                        : 2090
  193. Stream size                              : 14.4 MiB (0%)
  194. Title                                    : Chinese-PGS
  195. Language                                 : Chinese
  196. Default                                  : No
  197. Forced                                   : No

  198. Text #9
  199. ID                                       : 13
  200. Format                                   : PGS
  201. Muxing mode                              : zlib
  202. Codec ID                                 : S_HDMV/PGS
  203. Codec ID/Info                            : Picture based subtitle format used on BDs/HD-DVDs
  204. Duration                                 : 2 h 42 min
  205. Bit rate                                 : 12.6 kb/s
  206. Count of elements                        : 2086
  207. Stream size                              : 14.7 MiB (0%)
  208. Title                                    : Chinese-PGS
  209. Language                                 : Chinese
  210. Default                                  : No
  211. Forced                                   : No

  212. Text #10
  213. ID                                       : 14
  214. Format                                   : PGS
  215. Muxing mode                              : zlib
  216. Codec ID                                 : S_HDMV/PGS
  217. Codec ID/Info                            : Picture based subtitle format used on BDs/HD-DVDs
  218. Duration                                 : 2 h 42 min
  219. Bit rate                                 : 13.8 kb/s
  220. Count of elements                        : 2084
  221. Stream size                              : 16.1 MiB (0%)
  222. Title                                    : Croatian-PGS
  223. Language                                 : Croatian
  224. Default                                  : No
  225. Forced                                   : No

  226. Text #11
  227. ID                                       : 15
  228. Format                                   : PGS
  229. Muxing mode                              : zlib
  230. Codec ID                                 : S_HDMV/PGS
  231. Codec ID/Info                            : Picture based subtitle format used on BDs/HD-DVDs
  232. Duration                                 : 2 h 42 min
  233. Bit rate                                 : 14.0 kb/s
  234. Count of elements                        : 2074
  235. Stream size                              : 16.3 MiB (0%)
  236. Title                                    : Czech-PGS
  237. Language                                 : Czech
  238. Default                                  : No
  239. Forced                                   : No

  240. Text #12
  241. ID                                       : 16
  242. Format                                   : PGS
  243. Muxing mode                              : zlib
  244. Codec ID                                 : S_HDMV/PGS
  245. Codec ID/Info                            : Picture based subtitle format used on BDs/HD-DVDs
  246. Duration                                 : 2 h 41 min
  247. Bit rate                                 : 17.1 kb/s
  248. Count of elements                        : 2116
  249. Stream size                              : 19.7 MiB (0%)
  250. Title                                    : Greek-PGS
  251. Language                                 : Greek
  252. Default                                  : No
  253. Forced                                   : No

  254. Text #13
  255. ID                                       : 17
  256. Format                                   : PGS
  257. Muxing mode                              : zlib
  258. Codec ID                                 : S_HDMV/PGS
  259. Codec ID/Info                            : Picture based subtitle format used on BDs/HD-DVDs
  260. Duration                                 : 2 h 42 min
  261. Bit rate                                 : 11.6 kb/s
  262. Count of elements                        : 2104
  263. Stream size                              : 13.5 MiB (0%)
  264. Title                                    : Hebrew-PGS
  265. Language                                 : Hebrew
  266. Default                                  : No
  267. Forced                                   : No

  268. Text #14
  269. ID                                       : 18
  270. Format                                   : PGS
  271. Muxing mode                              : zlib
  272. Codec ID                                 : S_HDMV/PGS
  273. Codec ID/Info                            : Picture based subtitle format used on BDs/HD-DVDs
  274. Duration                                 : 2 h 42 min
  275. Bit rate                                 : 14.5 kb/s
  276. Count of elements                        : 1984
  277. Stream size                              : 16.9 MiB (0%)
  278. Title                                    : Hungarian-PGS
  279. Language                                 : Hungarian
  280. Default                                  : No
  281. Forced                                   : No

  282. Text #15
  283. ID                                       : 19
  284. Format                                   : PGS
  285. Muxing mode                              : zlib
  286. Codec ID                                 : S_HDMV/PGS
  287. Codec ID/Info                            : Picture based subtitle format used on BDs/HD-DVDs
  288. Duration                                 : 2 h 42 min
  289. Bit rate                                 : 15.4 kb/s
  290. Count of elements                        : 2036
  291. Stream size                              : 18.0 MiB (0%)
  292. Title                                    : Icelandic-PGS
  293. Language                                 : Icelandic
  294. Default                                  : No
  295. Forced                                   : No

  296. Text #16
  297. ID                                       : 20
  298. Format                                   : PGS
  299. Muxing mode                              : zlib
  300. Codec ID                                 : S_HDMV/PGS
  301. Codec ID/Info                            : Picture based subtitle format used on BDs/HD-DVDs
  302. Duration                                 : 2 h 42 min
  303. Bit rate                                 : 17.0 kb/s
  304. Count of elements                        : 2116
  305. Stream size                              : 19.8 MiB (0%)
  306. Title                                    : Indonesian-PGS
  307. Language                                 : Indonesian
  308. Default                                  : No
  309. Forced                                   : No

  310. Text #17
  311. ID                                       : 21
  312. Format                                   : PGS
  313. Muxing mode                              : zlib
  314. Codec ID                                 : S_HDMV/PGS
  315. Codec ID/Info                            : Picture based subtitle format used on BDs/HD-DVDs
  316. Duration                                 : 2 h 42 min
  317. Bit rate                                 : 12.2 kb/s
  318. Count of elements                        : 2104
  319. Stream size                              : 14.2 MiB (0%)
  320. Title                                    : Korean-PGS
  321. Language                                 : Korean
  322. Default                                  : No
  323. Forced                                   : No

  324. Text #18
  325. ID                                       : 22
  326. Format                                   : PGS
  327. Muxing mode                              : zlib
  328. Codec ID                                 : S_HDMV/PGS
  329. Codec ID/Info                            : Picture based subtitle format used on BDs/HD-DVDs
  330. Duration                                 : 2 h 42 min
  331. Bit rate                                 : 18.2 kb/s
  332. Count of elements                        : 2126
  333. Stream size                              : 21.2 MiB (0%)
  334. Title                                    : Malay-PGS
  335. Language                                 : Malay
  336. Default                                  : No
  337. Forced                                   : No

  338. Text #19
  339. ID                                       : 23
  340. Format                                   : PGS
  341. Muxing mode                              : zlib
  342. Codec ID                                 : S_HDMV/PGS
  343. Codec ID/Info                            : Picture based subtitle format used on BDs/HD-DVDs
  344. Duration                                 : 2 h 42 min
  345. Bit rate                                 : 16.0 kb/s
  346. Count of elements                        : 2092
  347. Stream size                              : 18.6 MiB (0%)
  348. Title                                    : Polish-PGS
  349. Language                                 : Polish
  350. Default                                  : No
  351. Forced                                   : No

  352. Text #20
  353. ID                                       : 24
  354. Format                                   : PGS
  355. Muxing mode                              : zlib
  356. Codec ID                                 : S_HDMV/PGS
  357. Codec ID/Info                            : Picture based subtitle format used on BDs/HD-DVDs
  358. Duration                                 : 2 h 42 min
  359. Bit rate                                 : 16.0 kb/s
  360. Count of elements                        : 2086
  361. Stream size                              : 18.6 MiB (0%)
  362. Title                                    : Portuguese-PGS
  363. Language                                 : Portuguese
  364. Default                                  : No
  365. Forced                                   : No

  366. Text #21
  367. ID                                       : 25
  368. Format                                   : PGS
  369. Muxing mode                              : zlib
  370. Codec ID                                 : S_HDMV/PGS
  371. Codec ID/Info                            : Picture based subtitle format used on BDs/HD-DVDs
  372. Duration                                 : 2 h 42 min
  373. Bit rate                                 : 16.0 kb/s
  374. Count of elements                        : 2102
  375. Stream size                              : 18.6 MiB (0%)
  376. Title                                    : Portuguese-PGS
  377. Language                                 : Portuguese
  378. Default                                  : No
  379. Forced                                   : No

  380. Text #22
  381. ID                                       : 26
  382. Format                                   : PGS
  383. Muxing mode                              : zlib
  384. Codec ID                                 : S_HDMV/PGS
  385. Codec ID/Info                            : Picture based subtitle format used on BDs/HD-DVDs
  386. Duration                                 : 2 h 42 min
  387. Bit rate                                 : 15.2 kb/s
  388. Count of elements                        : 2080
  389. Stream size                              : 17.6 MiB (0%)
  390. Title                                    : Romanian-PGS
  391. Language                                 : Romanian
  392. Default                                  : No
  393. Forced                                   : No

  394. Text #23
  395. ID                                       : 27
  396. Format                                   : PGS
  397. Muxing mode                              : zlib
  398. Codec ID                                 : S_HDMV/PGS
  399. Codec ID/Info                            : Picture based subtitle format used on BDs/HD-DVDs
  400. Duration                                 : 2 h 42 min
  401. Bit rate                                 : 14.6 kb/s
  402. Count of elements                        : 2082
  403. Stream size                              : 17.0 MiB (0%)
  404. Title                                    : Serbian-PGS
  405. Language                                 : Serbian
  406. Default                                  : No
  407. Forced                                   : No

  408. Text #24
  409. ID                                       : 28
  410. Format                                   : PGS
  411. Muxing mode                              : zlib
  412. Codec ID                                 : S_HDMV/PGS
  413. Codec ID/Info                            : Picture based subtitle format used on BDs/HD-DVDs
  414. Duration                                 : 2 h 42 min
  415. Bit rate                                 : 13.7 kb/s
  416. Count of elements                        : 2082
  417. Stream size                              : 15.9 MiB (0%)
  418. Title                                    : Slovak-PGS
  419. Language                                 : Slovak
  420. Default                                  : No
  421. Forced                                   : No

  422. Text #25
  423. ID                                       : 29
  424. Format                                   : PGS
  425. Muxing mode                              : zlib
  426. Codec ID                                 : S_HDMV/PGS
  427. Codec ID/Info                            : Picture based subtitle format used on BDs/HD-DVDs
  428. Duration                                 : 2 h 42 min
  429. Bit rate                                 : 13.3 kb/s
  430. Count of elements                        : 1964
  431. Stream size                              : 15.5 MiB (0%)
  432. Title                                    : Slovenian-PGS
  433. Language                                 : Slovenian
  434. Default                                  : No
  435. Forced                                   : No

  436. Text #26
  437. ID                                       : 30
  438. Format                                   : PGS
  439. Muxing mode                              : zlib
  440. Codec ID                                 : S_HDMV/PGS
  441. Codec ID/Info                            : Picture based subtitle format used on BDs/HD-DVDs
  442. Duration                                 : 2 h 42 min
  443. Bit rate                                 : 15.6 kb/s
  444. Count of elements                        : 2090
  445. Stream size                              : 18.1 MiB (0%)
  446. Title                                    : Spanish-PGS
  447. Language                                 : Spanish
  448. Default                                  : No
  449. Forced                                   : No

  450. Text #27
  451. ID                                       : 31
  452. Format                                   : PGS
  453. Muxing mode                              : zlib
  454. Codec ID                                 : S_HDMV/PGS
  455. Codec ID/Info                            : Picture based subtitle format used on BDs/HD-DVDs
  456. Duration                                 : 2 h 42 min
  457. Bit rate                                 : 14.8 kb/s
  458. Count of elements                        : 2096
  459. Stream size                              : 17.2 MiB (0%)
  460. Title                                    : Thai-PGS
  461. Language                                 : Thai
  462. Default                                  : No
  463. Forced                                   : No

  464. Text #28
  465. ID                                       : 32
  466. Format                                   : PGS
  467. Muxing mode                              : zlib
  468. Codec ID                                 : S_HDMV/PGS
  469. Codec ID/Info                            : Picture based subtitle format used on BDs/HD-DVDs
  470. Duration                                 : 2 h 42 min
  471. Bit rate                                 : 15.7 kb/s
  472. Count of elements                        : 2092
  473. Stream size                              : 18.3 MiB (0%)
  474. Title                                    : Turkish-PGS
  475. Language                                 : Turkish
  476. Default                                  : No
  477. Forced                                   : No

  478. Text #29
  479. ID                                       : 33
  480. Format                                   : PGS
  481. Muxing mode                              : zlib
  482. Codec ID                                 : S_HDMV/PGS
  483. Codec ID/Info                            : Picture based subtitle format used on BDs/HD-DVDs
  484. Duration                                 : 2 h 42 min
  485. Bit rate                                 : 17.6 kb/s
  486. Count of elements                        : 2146
  487. Stream size                              : 20.5 MiB (0%)
  488. Title                                    : Vietnamese-PGS
  489. Language                                 : Vietnamese
  490. Default                                  : No
  491. Forced                                   : No

  492. Menu
  493. 00:00:00.000                             : en:Chapter 1
  494. 00:12:36.172                             : en:Chapter 2
  495. 00:23:29.282                             : en:Chapter 3
  496. 00:37:00.885                             : en:Chapter 4
  497. 00:42:50.317                             : en:Chapter 5
  498. 00:49:24.503                             : en:Chapter 6
  499. 00:58:35.553                             : en:Chapter 7
  500. 01:04:10.680                             : en:Chapter 8
  501. 01:15:47.292                             : en:Chapter 9
  502. 01:25:12.482                             : en:Chapter 10
  503. 01:36:15.060                             : en:Chapter 11
  504. 01:50:55.106                             : en:Chapter 12
  505. 02:01:36.872                             : en:Chapter 13
  506. 02:08:40.379                             : en:Chapter 14
  507. 02:16:42.485                             : en:Chapter 15
  508. 02:27:46.732                             : en:Chapter 16

复制代码
复制代码
051421koxj5s84y88xjjx4.png 051421zedlezkvwzvtzyws.png 051422o0jv0gcga3p44aph.png 051422px0xjds1sd38a3ey.png 051423qdd418o8b1e1lvoh.png 051423se6grw6uummjwieg.png 051424jz7uturzr3uz3dzu.png




本帖隐藏的下载地址需要VIP会员才可阅读,您需要升级才可阅读,点击这里升级VIP

回复

使用道具 举报

级别:荣升主角 Lv.5

注册时间
2018-4-26
最后登录
2019-5-25
听众
6
收听
0
主题
0
蓝光币
658 枚
贡献
0 点
QQ
发表于 2018-4-28 20:07:15 | 显示全部楼层
收藏,这片子真是有看头。
回复

使用道具 举报

级别:初级观众 Lv.1

注册时间
2019-5-3
最后登录
2019-5-10
听众
1
收听
0
主题
0
蓝光币
2 枚
贡献
0 点
发表于 2019-5-10 16:23:16 | 显示全部楼层

感谢楼主的无私分享!要想中国高清电影网好 就靠你我他
回复

使用道具 举报

级别:初级观众 Lv.1

注册时间
2019-5-12
最后登录
2019-5-16
听众
1
收听
0
主题
0
蓝光币
1 枚
贡献
0 点
QQ
发表于 2019-5-13 14:07:19 | 显示全部楼层
好资源 好想看
回复

使用道具 举报

级别:初级观众 Lv.1

注册时间
2019-5-13
最后登录
2019-5-13
听众
1
收听
0
主题
0
蓝光币
2 枚
贡献
0 点
发表于 2019-5-13 21:46:47 | 显示全部楼层

楼主太厉害了!楼主,电影应该很好看我觉得中国高清电影网真是个好地方!
回复

使用道具 举报

*滑动验证:
懒得打字嘛,点击右侧快捷回复 【右侧内容,后台自定义】
您需要登录后才可以回帖 登录 | 立即注册

本版积分规则

QQ|Archiver|手机版|小黑屋| 中国高清网  |网站地图

GMT+8, 2019-5-26 05:10 , Processed in 0.278317 second(s), 47 queries .

Powered by HDchina X3.4

Copyright 2017-2019©HDchina.All right reserved

返回顶部 联系我们