查看: 66|回复: 1

[动作片] 火线交锋/非法基地 Direct.Action.2004.STV.1080p.BluRay.x264-ADRENALiNE 7.95GB

[复制链接]

 成长值: 3160

级别:资源管理组

注册时间
2017-10-20
最后登录
2019-11-11
听众
1
收听
0
主题
86761
蓝光币
61811 枚
贡献
11119 点
发表于 4 天前 | 显示全部楼层 |阅读模式
前方交锋/不法基地 Direct.Action.2004.STV.1080p.BluRay.x264-ADRENALiNE 7.95GB-1.png

译  名 前方交锋 / 不法基地
片  名 Direct Action
年  代 2004
产  地 美国 / 加拿大
类  别 行动 / 惊悚 / 犯罪
语  言 英语
上映日期 2004-05-25
IMDb评分  5.0/10 from 1323 users
IMDb链接  http://www.imdb.com/title/tt0368688
豆瓣评分 5.8/10 from 48 users
豆瓣链接 https://movie.douban.com/subject/1420031/
片  长 97 分钟
导  演 悉尼 J. 弗里 (Sidney J. Furie)
编  剧 Greg Mellott / 悉尼 J. 弗里 (Sidney J. Furie)
主  演 杜夫·朗格 Dolph Lundgren


标  签 行动 | 美国 | Dolph_Lundgren | 美国电影 | 杜夫龙格尔 | 2004 | 这张电影这里有 | 西德尼弗里尔

简  介  

  捕快弗兰克正预备退休。由于厌倦了警局内部的败北以及他决心帮助自己的手下得回应得的权利。但是他最初的一件案件使他卷入了一场噩梦,不单使他的奇迹朝不保夕,生命也能够不保……
  1. Video
  2. ID                                       : 1
  3. Format                                   : AVC
  4. Format/Info                              : Advanced Video Codec
  5. Format profile                           : High@L4
  6. Format settings                          : CABAC / 4 Ref Frames
  7. Format settings, CABAC                   : Yes
  8. Format settings, Reference frames        : 4 frames
  9. Codec ID                                 : V_MPEG4/ISO/AVC
  10. Duration                                 : 1 h 36 min
  11. Bit rate                                 : 11.3 Mb/s
  12. Width                                    : 1 920 pixels
  13. Height                                   : 1 080 pixels
  14. Display aspect ratio                     : 16:9
  15. Frame rate mode                          : Constant
  16. Frame rate                               : 23.976 FPS
  17. Color space                              : YUV
  18. Chroma subsampling                       : 4:2:0
  19. Bit depth                                : 8 bits
  20. Scan type                                : Progressive
  21. Bits/(Pixel*Frame)                       : 0.228
  22. Stream size                              : 7.49 GiB (94%)
  23. Writing library                          : x264 core 78 r1301 bcba15d
  24. Encoding settings                        : cabac=1 / ref=4 / deblock=1:0:0 / analyse=0x3:0x133 / me=umh / subme=7 / psy=1 / psy_rd=1.0:0.0 / mixed_ref=1 / me_range=16 / chroma_me=1 / trellis=1 / 8x8dct=1 / cqm=0 / deadzone=21,11 / chroma_qp_offset=-2 / threads=12 / nr=0 / decimate=1 / mbaff=0 / constrained_intra=0 / bframes=3 / b_pyramid=0 / b_adapt=1 / b_bias=0 / direct=1 / wpredb=1 / keyint=250 / keyint_min=25 / scenecut=40 / rc_lookahead=40 / rc=2pass / mbtree=1 / bitrate=11342 / ratetol=1.0 / qcomp=0.60 / qpmin=10 / qpmax=51 / qpstep=4 / cplxblur=20.0 / qblur=0.5 / ip_ratio=1.40 / aq=1:1.00
  25. Language                                 : English
  26. Default                                  : Yes
  27. Forced                                   : No

  28. Audio
  29. ID                                       : 2
  30. Format                                   : AC-3
  31. Format/Info                              : Audio Coding 3
  32. Commercial name                          : Dolby Digital
  33. Codec ID                                 : A_AC3
  34. Duration                                 : 1 h 36 min
  35. Bit rate mode                            : Constant
  36. Bit rate                                 : 448 kb/s
  37. Channel(s)                               : 6 channels
  38. Channel layout                           : L R C LFE Ls Rs
  39. Sampling rate                            : 48.0 kHz
  40. Frame rate                               : 31.250 FPS (1536 SPF)
  41. Bit depth                                : 16 bits
  42. Compression mode                         : Lossy
  43. Stream size                              : 309 MiB (4%)
  44. Language                                 : English
  45. Service kind                             : Complete Main
  46. Default                                  : Yes
  47. Forced                                   : No

  48. Text
  49. ID                                       : 3
  50. Format                                   : UTF-8
  51. Codec ID                                 : S_TEXT/UTF8
  52. Codec ID/Info                            : UTF-8 Plain Text
  53. Language                                 : English
  54. Default                                  : Yes
  55. Forced                                   : No
复制代码

前方交锋/不法基地 Direct.Action.2004.STV.1080p.BluRay.x264-ADRENALiNE 7.95GB-2.png 前方交锋/不法基地 Direct.Action.2004.STV.1080p.BluRay.x264-ADRENALiNE 7.95GB-3.png 前方交锋/不法基地 Direct.Action.2004.STV.1080p.BluRay.x264-ADRENALiNE 7.95GB-4.png







VIP会员免费任意下载本站所有资源!---点击开通
回复

使用道具 举报

级别:专业龙套 Lv.4

注册时间
2018-12-1
最后登录
2019-11-13
听众
14
收听
0
主题
0
蓝光币
3 枚
贡献
0 点
发表于 3 天前 | 显示全部楼层
楼主发贴辛苦了,谢谢楼主分享!我觉得中国高清电影网是注册对了!
VIP会员免费任意下载本站所有资源!---点击开通
回复

使用道具 举报

懒得打字嘛,点击右侧快捷回复 【右侧内容,后台自定义】
您需要登录后才可以回帖 登录 | 立即注册

本版积分规则

QQ|Archiver|手机版|小黑屋| 中国高清网 |网站地图 

GMT+8, 2019-11-15 07:43 , Processed in 0.229908 second(s), 37 queries .

Powered by HDchina X3.4

Copyright 2017-2019©HDchina.All right reserved

返回顶部 联系我们