查看: 50|回复: 0

[剧情片] 布莱恩·班克斯 Brian.Banks.2018.1080p.BluRay.x264.DTS-HD.MA.5.1-FGT 8.98GB

[复制链接]

 成长值: 3160

级别:资源管理组

注册时间
2017-10-20
最后登录
2019-11-11
听众
1
收听
0
主题
86761
蓝光币
61831 枚
贡献
11119 点
发表于 4 天前 | 显示全部楼层 |阅读模式
布莱恩·班克斯 Brian.Banks.2018.1080p.BluRay.x264.DTS-HD.MA.5.1-FGT 8.98GB-1.png

译  名 布莱恩·班克斯
片  名 Brian Banks
年  代 2019
产  地 美国
类  别 剧情 / 列传 / 活动
语  言 英语
上映日期 2018-09-22(洛杉矶电影节) / 2019-09-09(美国)
IMDb评分  6.4/10 from 530 users
IMDb链接  https://www.imdb.com/title/tt3920820
豆瓣评分 0/10 from 0 users
豆瓣链接 https://movie.douban.com/subject/30183613/
片  长 99分钟
导  演 汤姆·沙迪亚克 Tom Shadyac
编  剧 道格·阿金森 Doug Atchison
主  演 梅兰妮·利伯德 Melanie Liburd
       蒂凡尼·多庞特 Tiffany Dupont
       格雷戈·金尼尔 Greg Kinnear
       阿尔迪斯·霍吉 Aldis Hodge
       雪莉·谢波德 Sherri Shepherd
       马特·巴特格里亚 Matt Battaglia
       豪莎·罗克莫雷 Xosha Roquemore
       道林·米西克 Dorian Missick
       吉诺·维托 Gino Vento
       迪安·丹顿 Dean Denton
       哈里森·斯通 Harrison Stone


标  签 列传 | 美国 | 橄榄球 | 审判 | 永不放弃 | 强奸 | ARC | AMC

简  介  

  暂无相关剧情先容
  1. Video
  2. ID                                       : 1
  3. Format                                   : AVC
  4. Format/Info                              : Advanced Video Codec
  5. Format profile                           : High@L4
  6. Format settings                          : CABAC / 5 Ref Frames
  7. Format settings, CABAC                   : Yes
  8. Format settings, Reference frames        : 5 frames
  9. Codec ID                                 : V_MPEG4/ISO/AVC
  10. Duration                                 : 1 h 39 min
  11. Bit rate                                 : 9 471 kb/s
  12. Width                                    : 1 920 pixels
  13. Height                                   : 800 pixels
  14. Display aspect ratio                     : 2.40:1
  15. Frame rate mode                          : Constant
  16. Frame rate                               : 23.976 (24000/1001) FPS
  17. Color space                              : YUV
  18. Chroma subsampling                       : 4:2:0
  19. Bit depth                                : 8 bits
  20. Scan type                                : Progressive
  21. Bits/(Pixel*Frame)                       : 0.257
  22. Stream size                              : 6.59 GiB (73%)
  23. Title                                    : Brian.Banks.2018.1080p.BluRay.x264.DTS-HD.MA.5.1-FGT
  24. Writing library                          : x264 core 158 r2984 3759fcb
  25. Encoding settings                        : cabac=1 / ref=5 / deblock=1:-3:-3 / analyse=0x3:0x113 / me=umh / subme=8 / psy=1 / psy_rd=1.00:0.00 / mixed_ref=1 / me_range=16 / chroma_me=1 / trellis=1 / 8x8dct=1 / cqm=0 / deadzone=21,11 / fast_pskip=1 / chroma_qp_offset=-2 / threads=25 / lookahead_threads=4 / sliced_threads=0 / nr=0 / decimate=1 / interlaced=0 / bluray_compat=0 / constrained_intra=0 / bframes=3 / b_pyramid=2 / b_adapt=1 / b_bias=0 / direct=3 / weightb=1 / open_gop=0 / weightp=2 / keyint=250 / keyint_min=23 / scenecut=40 / intra_refresh=0 / rc_lookahead=50 / rc=2pass / mbtree=1 / bitrate=9471 / ratetol=1.0 / qcomp=0.60 / qpmin=0 / qpmax=69 / qpstep=4 / cplxblur=20.0 / qblur=0.5 / ip_ratio=1.40 / aq=1:1.00
  26. Language                                 : English
  27. Default                                  : Yes
  28. Forced                                   : No

  29. Audio
  30. ID                                       : 2
  31. Format                                   : DTS XLL
  32. Format/Info                              : Digital Theater Systems
  33. Commercial name                          : DTS-HD Master Audio
  34. Codec ID                                 : A_DTS
  35. Duration                                 : 1 h 39 min
  36. Bit rate mode                            : Variable
  37. Bit rate                                 : 3 370 kb/s
  38. Channel(s)                               : 6 channels
  39. Channel layout                           : C L R Ls Rs LFE
  40. Sampling rate                            : 48.0 kHz
  41. Frame rate                               : 93.750 FPS (512 SPF)
  42. Bit depth                                : 24 bits
  43. Compression mode                         : Lossless
  44. Stream size                              : 2.35 GiB (26%)
  45. Title                                    : Brian.Banks.2018.1080p.BluRay.x264.DTS-HD.MA.5.1-FGT
  46. Language                                 : English
  47. Default                                  : Yes
  48. Forced                                   : No

  49. Text #1
  50. ID                                       : 3
  51. Format                                   : UTF-8
  52. Codec ID                                 : S_TEXT/UTF8
  53. Codec ID/Info                            : UTF-8 Plain Text
  54. Duration                                 : 1 h 33 min
  55. Bit rate                                 : 80 b/s
  56. Count of elements                        : 1466
  57. Stream size                              : 55.6 KiB (0%)
  58. Title                                    : English-SRT
  59. Language                                 : English
  60. Default                                  : Yes
  61. Forced                                   : No

  62. Text #2
  63. ID                                       : 4
  64. Format                                   : PGS
  65. Muxing mode                              : zlib
  66. Codec ID                                 : S_HDMV/PGS
  67. Codec ID/Info                            : Picture based subtitle format used on BDs/HD-DVDs
  68. Duration                                 : 1 h 33 min
  69. Bit rate                                 : 58.6 kb/s
  70. Count of elements                        : 3090
  71. Stream size                              : 39.3 MiB (0%)
  72. Title                                    : English-PGS
  73. Language                                 : English
  74. Default                                  : No
  75. Forced                                   : No

  76. Text #3
  77. ID                                       : 5
  78. Format                                   : PGS
  79. Muxing mode                              : zlib
  80. Codec ID                                 : S_HDMV/PGS
  81. Codec ID/Info                            : Picture based subtitle format used on BDs/HD-DVDs
  82. Duration                                 : 1 h 38 min
  83. Bit rate                                 : 45.3 kb/s
  84. Count of elements                        : 2732
  85. Stream size                              : 32.0 MiB (0%)
  86. Title                                    : Spanish-PGS
  87. Language                                 : Spanish
  88. Default                                  : No
  89. Forced                                   : No

  90. Text #4
  91. ID                                       : 6
  92. Format                                   : PGS
  93. Muxing mode                              : zlib
  94. Codec ID                                 : S_HDMV/PGS
  95. Codec ID/Info                            : Picture based subtitle format used on BDs/HD-DVDs
  96. Duration                                 : 1 h 37 min
  97. Bit rate                                 : 1 097 b/s
  98. Count of elements                        : 80
  99. Stream size                              : 785 KiB (0%)
  100. Title                                    : Spanish-FORCED-PGS
  101. Language                                 : Spanish
  102. Default                                  : No
  103. Forced                                   : No

  104. Menu
  105. 00:00:00.000                             : en:Chapter 01
  106. 00:05:49.182                             : en:Chapter 02
  107. 00:10:11.527                             : en:Chapter 03
  108. 00:14:00.965                             : en:Chapter 04
  109. 00:20:07.039                             : en:Chapter 05
  110. 00:25:57.055                             : en:Chapter 06
  111. 00:30:17.106                             : en:Chapter 07
  112. 00:34:03.291                             : en:Chapter 08
  113. 00:40:58.497                             : en:Chapter 09
  114. 00:45:15.671                             : en:Chapter 10
  115. 00:50:08.213                             : en:Chapter 11
  116. 00:55:01.089                             : en:Chapter 12
  117. 01:00:45.600                             : en:Chapter 13
  118. 01:04:00.795                             : en:Chapter 14
  119. 01:10:26.347                             : en:Chapter 15
  120. 01:14:43.395                             : en:Chapter 16
  121. 01:17:11.627                             : en:Chapter 17
  122. 01:24:15.050                             : en:Chapter 18
  123. 01:29:24.734                             : en:Chapter 19
  124. 01:35:00.861                             : en:Chapter 20
复制代码

布莱恩·班克斯 Brian.Banks.2018.1080p.BluRay.x264.DTS-HD.MA.5.1-FGT 8.98GB-2.png 布莱恩·班克斯 Brian.Banks.2018.1080p.BluRay.x264.DTS-HD.MA.5.1-FGT 8.98GB-3.png 布莱恩·班克斯 Brian.Banks.2018.1080p.BluRay.x264.DTS-HD.MA.5.1-FGT 8.98GB-4.png







VIP会员免费任意下载本站所有资源!---点击开通
回复

使用道具 举报

懒得打字嘛,点击右侧快捷回复 【右侧内容,后台自定义】
您需要登录后才可以回帖 登录 | 立即注册

本版积分规则

QQ|Archiver|手机版|小黑屋| 中国高清网 |网站地图 

GMT+8, 2019-11-15 08:56 , Processed in 0.258996 second(s), 37 queries .

Powered by HDchina X3.4

Copyright 2017-2019©HDchina.All right reserved

返回顶部 联系我们