查看: 22|回复: 1

[剧情片] 布莱恩·班克斯 Brian.Banks.2018.1080p.BluRay.REMUX.AVC.DTS-HD.MA.5.1-FGT 28.03GB

[复制链接]

 成长值: 3160

级别:资源管理组

注册时间
2017-10-20
最后登录
2019-11-11
听众
1
收听
0
主题
86761
蓝光币
61811 枚
贡献
11119 点
发表于 4 天前 | 显示全部楼层 |阅读模式
092642cb9v9pgbf07m7g59.png

译  名 布莱恩·班克斯
片  名 Brian Banks
年  代 2019
产  地 美国
类  别 剧情 / 列传 / 活动
语  言 英语
上映日期 2018-09-22(洛杉矶电影节) / 2019-09-09(美国)
IMDb评分  6.4/10 from 530 users
IMDb链接  https://www.imdb.com/title/tt3920820
豆瓣评分 0/10 from 0 users
豆瓣链接 https://movie.douban.com/subject/30183613/
片  长 99分钟
导  演 汤姆·沙迪亚克 Tom Shadyac
编  剧 道格·阿金森 Doug Atchison
主  演 梅兰妮·利伯德 Melanie Liburd
       蒂凡尼·多庞特 Tiffany Dupont
       格雷戈·金尼尔 Greg Kinnear
       阿尔迪斯·霍吉 Aldis Hodge
       雪莉·谢波德 Sherri Shepherd
       马特·巴特格里亚 Matt Battaglia
       豪莎·罗克莫雷 Xosha Roquemore
       道林·米西克 Dorian Missick
       吉诺·维托 Gino Vento
       迪安·丹顿 Dean Denton
       哈里森·斯通 Harrison Stone


标  签 列传 | 美国 | 橄榄球 | 审判 | 永不放弃 | 强奸 | ARC | AMC

简  介  

  暂无相关剧情先容
  1. Video
  2. ID                                       : 1
  3. Format                                   : AVC
  4. Format/Info                              : Advanced Video Codec
  5. Format profile                           : High@L4
  6. Format settings                          : CABAC / 4 Ref Frames
  7. Format settings, CABAC                   : Yes
  8. Format settings, Reference frames        : 4 frames
  9. Codec ID                                 : V_MPEG4/ISO/AVC
  10. Duration                                 : 1 h 39 min
  11. Bit rate mode                            : Variable
  12. Bit rate                                 : 35.8 Mb/s
  13. Maximum bit rate                         : 40.0 Mb/s
  14. Width                                    : 1 920 pixels
  15. Height                                   : 1 080 pixels
  16. Display aspect ratio                     : 16:9
  17. Frame rate mode                          : Constant
  18. Frame rate                               : 23.976 (24000/1001) FPS
  19. Color space                              : YUV
  20. Chroma subsampling                       : 4:2:0
  21. Bit depth                                : 8 bits
  22. Scan type                                : Progressive
  23. Bits/(Pixel*Frame)                       : 0.721
  24. Stream size                              : 25.0 GiB (89%)
  25. Title                                    : Brian.Banks.2018.1080p.BluRay.REMUX.AVC.DTS-HD.MA.5.1-FGT
  26. Language                                 : English
  27. Default                                  : No
  28. Forced                                   : No

  29. Audio #1
  30. ID                                       : 2
  31. Format                                   : DTS XLL
  32. Format/Info                              : Digital Theater Systems
  33. Commercial name                          : DTS-HD Master Audio
  34. Codec ID                                 : A_DTS
  35. Duration                                 : 1 h 39 min
  36. Bit rate mode                            : Variable
  37. Bit rate                                 : 3 370 kb/s
  38. Channel(s)                               : 6 channels
  39. Channel layout                           : C L R Ls Rs LFE
  40. Sampling rate                            : 48.0 kHz
  41. Frame rate                               : 93.750 FPS (512 SPF)
  42. Bit depth                                : 24 bits
  43. Compression mode                         : Lossless
  44. Stream size                              : 2.35 GiB (8%)
  45. Title                                    : Brian.Banks.2018.1080p.BluRay.REMUX.AVC.DTS-HD.MA.5.1-FGT
  46. Language                                 : English
  47. Default                                  : Yes
  48. Forced                                   : No

  49. Audio #2
  50. ID                                       : 3
  51. Format                                   : DTS
  52. Format/Info                              : Digital Theater Systems
  53. Codec ID                                 : A_DTS
  54. Duration                                 : 1 h 39 min
  55. Bit rate mode                            : Constant
  56. Bit rate                                 : 768 kb/s
  57. Channel(s)                               : 2 channels
  58. Channel layout                           : Lt Rt
  59. Sampling rate                            : 48.0 kHz
  60. Frame rate                               : 93.750 FPS (512 SPF)
  61. Bit depth                                : 24 bits
  62. Compression mode                         : Lossy
  63. Stream size                              : 548 MiB (2%)
  64. Title                                    : Brian.Banks.2018.1080p.BluRay.REMUX.AVC.DTS-HD.MA.5.1-FGT
  65. Language                                 : Spanish
  66. Default                                  : No
  67. Forced                                   : No

  68. Audio #3
  69. ID                                       : 4
  70. Format                                   : AC-3
  71. Format/Info                              : Audio Coding 3
  72. Commercial name                          : Dolby Digital
  73. Codec ID                                 : A_AC3
  74. Duration                                 : 1 h 39 min
  75. Bit rate mode                            : Constant
  76. Bit rate                                 : 192 kb/s
  77. Channel(s)                               : 2 channels
  78. Channel layout                           : L R
  79. Sampling rate                            : 48.0 kHz
  80. Frame rate                               : 31.250 FPS (1536 SPF)
  81. Bit depth                                : 16 bits
  82. Compression mode                         : Lossy
  83. Stream size                              : 137 MiB (0%)
  84. Title                                    : Brian.Banks.2018.1080p.BluRay.REMUX.AVC.DTS-HD.MA.5.1-FGT
  85. Language                                 : English
  86. Service kind                             : Complete Main
  87. Default                                  : No
  88. Forced                                   : No

  89. Text #1
  90. ID                                       : 5
  91. Format                                   : UTF-8
  92. Codec ID                                 : S_TEXT/UTF8
  93. Codec ID/Info                            : UTF-8 Plain Text
  94. Duration                                 : 1 h 33 min
  95. Bit rate                                 : 80 b/s
  96. Count of elements                        : 1466
  97. Stream size                              : 55.6 KiB (0%)
  98. Title                                    : English-SRT
  99. Language                                 : English
  100. Default                                  : Yes
  101. Forced                                   : No

  102. Text #2
  103. ID                                       : 6
  104. Format                                   : PGS
  105. Muxing mode                              : zlib
  106. Codec ID                                 : S_HDMV/PGS
  107. Codec ID/Info                            : Picture based subtitle format used on BDs/HD-DVDs
  108. Duration                                 : 1 h 33 min
  109. Bit rate                                 : 58.6 kb/s
  110. Count of elements                        : 3090
  111. Stream size                              : 39.3 MiB (0%)
  112. Title                                    : English-PGS
  113. Language                                 : English
  114. Default                                  : No
  115. Forced                                   : No

  116. Text #3
  117. ID                                       : 7
  118. Format                                   : PGS
  119. Muxing mode                              : zlib
  120. Codec ID                                 : S_HDMV/PGS
  121. Codec ID/Info                            : Picture based subtitle format used on BDs/HD-DVDs
  122. Duration                                 : 1 h 38 min
  123. Bit rate                                 : 45.3 kb/s
  124. Count of elements                        : 2732
  125. Stream size                              : 32.0 MiB (0%)
  126. Title                                    : Spanish-PGS
  127. Language                                 : Spanish
  128. Default                                  : No
  129. Forced                                   : No

  130. Text #4
  131. ID                                       : 8
  132. Format                                   : PGS
  133. Muxing mode                              : zlib
  134. Codec ID                                 : S_HDMV/PGS
  135. Codec ID/Info                            : Picture based subtitle format used on BDs/HD-DVDs
  136. Duration                                 : 1 h 37 min
  137. Bit rate                                 : 1 097 b/s
  138. Count of elements                        : 80
  139. Stream size                              : 785 KiB (0%)
  140. Title                                    : Spanish-FORCED-PGS
  141. Language                                 : Spanish
  142. Default                                  : No
  143. Forced                                   : No

  144. Menu
  145. 00:00:00.000                             : en:Chapter 01
  146. 00:05:49.182                             : en:Chapter 02
  147. 00:10:11.527                             : en:Chapter 03
  148. 00:14:00.965                             : en:Chapter 04
  149. 00:20:07.039                             : en:Chapter 05
  150. 00:25:57.055                             : en:Chapter 06
  151. 00:30:17.106                             : en:Chapter 07
  152. 00:34:03.291                             : en:Chapter 08
  153. 00:40:58.497                             : en:Chapter 09
  154. 00:45:15.671                             : en:Chapter 10
  155. 00:50:08.213                             : en:Chapter 11
  156. 00:55:01.089                             : en:Chapter 12
  157. 01:00:45.600                             : en:Chapter 13
  158. 01:04:00.795                             : en:Chapter 14
  159. 01:10:26.347                             : en:Chapter 15
  160. 01:14:43.395                             : en:Chapter 16
  161. 01:17:11.627                             : en:Chapter 17
  162. 01:24:15.050                             : en:Chapter 18
  163. 01:29:24.734                             : en:Chapter 19
  164. 01:35:00.861                             : en:Chapter 20
复制代码

布莱恩·班克斯 Brian.Banks.2018.1080p.BluRay.REMUX.AVC.DTS-HD.MA.5.1-FGT 28.03GB-2.png 布莱恩·班克斯 Brian.Banks.2018.1080p.BluRay.REMUX.AVC.DTS-HD.MA.5.1-FGT 28.03GB-3.png 092657xerwjm6mzrqc6mmo.png







VIP会员免费任意下载本站所有资源!---点击开通
回复

使用道具 举报

级别:群众演员 Lv.3

注册时间
2018-1-26
最后登录
2019-11-15
听众
3
收听
0
主题
0
蓝光币
3 枚
贡献
0 点
发表于 昨天 09:05 | 显示全部楼层
██████在-线-看-片bxxp7.c o m 】██████

██████在-线-看-片
bxxp7.c o m 】██████

██████在-线-看-片
bxxp7.c o m 】██████

██████在-线-看-片
bxxp7.c o m 】██████

██████在-线-看-片
bxxp7.c o m 】██████

██████在-线-看-片
bxxp7.c o m 】██████

██████在-线-看-片
bxxp7.c o m 】██████
VIP会员免费任意下载本站所有资源!---点击开通
回复

使用道具 举报

懒得打字嘛,点击右侧快捷回复 【右侧内容,后台自定义】
您需要登录后才可以回帖 登录 | 立即注册

本版积分规则

QQ|Archiver|手机版|小黑屋| 中国高清网 |网站地图 

GMT+8, 2019-11-15 07:28 , Processed in 0.250743 second(s), 37 queries .

Powered by HDchina X3.4

Copyright 2017-2019©HDchina.All right reserved

返回顶部 联系我们