查看: 19|回复: 1

[动画片] 超人之死与超人归来 The.Death.and.Return.of.Superman.2019.1080p.BluRay.REMUX.AVC.DTS-HD.MA.5.1-FGT 21.19GB

[复制链接]

 成长值: 3160

级别:资源管理组

注册时间
2017-10-20
最后登录
2019-11-11
听众
1
收听
0
主题
86761
蓝光币
61819 枚
贡献
11119 点
发表于 4 天前 | 显示全部楼层 |阅读模式
092216tgszotox8polo4kk.png

译  名 超人之死与超人归来
片  名 The Death and Return of Superman
年  代 2019
产  地 美国
类  别 动画
语  言 英语
上映日期 2019-10-01(美国)
IMDb链接  http://www.imdb.com/title/tt11043546
豆瓣评分 0/10 from 0 users
豆瓣链接 https://movie.douban.com/subject/34845738/
片  长 166分钟
导  演 杰克·卡斯托雷纳 Jake Castorena / 刘山姆 Sam Liu
编  剧 比尔·芬格 Bill Finger
主  演 杰瑞·奥康奈尔 Jerry O'Connell
       丽贝卡·罗梅恩 Rebecca Romijn
       罗莎里奥·道森 Rosario Dawson
       耐姆比·耐姆比 Nyambi Nyambi
       乔纳森·亚当斯 Jonathan Adams
       洛奇·卡罗尔 Rocky Carroll
       特雷弗·德瓦 Trevor Devall
       保罗·伊丁 Paul Eiding
       詹妮弗·黑尔 Jennifer Hale
       查尔斯·哈尔福德 Charles Halford
       艾丽卡·鲁特雷尔 Erica Luttrell
       马克斯·迈特尔曼 Max Mittelman
       托克斯·奥拉贡多耶 Toks Olagundoye
       里克·帕斯夸隆 Rick Pasqualone
       Amanda Troop


简  介  

  The Death of Superman and Reign of the Supermen now presented as an over two-hour unabridged and seamless animated feature. Witness the no-holds-barred battle between the Justice League and an unstoppable alien force known only as Doomsday, a battle that only Superman can finish and will forever change the face of Metropolis.
  The Death and Return of Superman finds Superman in a fight to the finish when the Man of Steel becomes the only hero who can stand in the way of the monstrous creature Doomsday and his unstoppable rampage. Superman saves the planet, but not himself, leaving Earth’s citizens – and his heroic contemporaries – dealing with a world without Superman. The aftermath of Superman’s death, and the subsequent disappearance of his body, leads to a new mystery – is Superman still alive? The question is further complicated when four new super-powered individuals – Steel, Cyborg Superman, Superboy and the Eradicator – emerge to proclaim themselves as the ultimate hero. In the end, only one will be able to proclaim himself the world’s true Superman.
  1. Video
  2. ID                                       : 1
  3. Format                                   : AVC
  4. Format/Info                              : Advanced Video Codec
  5. Format profile                           : High@L4
  6. Format settings                          : CABAC / 4 Ref Frames
  7. Format settings, CABAC                   : Yes
  8. Format settings, Reference frames        : 4 frames
  9. Codec ID                                 : V_MPEG4/ISO/AVC
  10. Duration                                 : 2 h 46 min
  11. Bit rate mode                            : Variable
  12. Bit rate                                 : 13.9 Mb/s
  13. Maximum bit rate                         : 37.0 Mb/s
  14. Width                                    : 1 920 pixels
  15. Height                                   : 1 080 pixels
  16. Display aspect ratio                     : 16:9
  17. Frame rate mode                          : Constant
  18. Frame rate                               : 23.976 (24000/1001) FPS
  19. Color space                              : YUV
  20. Chroma subsampling                       : 4:2:0
  21. Bit depth                                : 8 bits
  22. Scan type                                : Progressive
  23. Bits/(Pixel*Frame)                       : 0.279
  24. Stream size                              : 16.1 GiB (76%)
  25. Title                                    : The.Death.and.Return.of.Superman.2019.1080p.BluRay.REMUX.AVC.DTS-HD.MA.5.1-FGT
  26. Language                                 : English
  27. Default                                  : No
  28. Forced                                   : No

  29. Audio #1
  30. ID                                       : 2
  31. Format                                   : DTS XLL
  32. Format/Info                              : Digital Theater Systems
  33. Commercial name                          : DTS-HD Master Audio
  34. Codec ID                                 : A_DTS
  35. Duration                                 : 2 h 46 min
  36. Bit rate mode                            : Variable
  37. Bit rate                                 : 2 364 kb/s
  38. Channel(s)                               : 6 channels
  39. Channel layout                           : C L R Ls Rs LFE
  40. Sampling rate                            : 48.0 kHz
  41. Frame rate                               : 93.750 FPS (512 SPF)
  42. Bit depth                                : 24 bits
  43. Compression mode                         : Lossless
  44. Stream size                              : 2.75 GiB (13%)
  45. Title                                    : The.Death.and.Return.of.Superman.2019.1080p.BluRay.REMUX.AVC.DTS-HD.MA.5.1-FGT
  46. Language                                 : English
  47. Default                                  : Yes
  48. Forced                                   : No

  49. Audio #2
  50. ID                                       : 3
  51. Format                                   : AC-3
  52. Format/Info                              : Audio Coding 3
  53. Commercial name                          : Dolby Digital
  54. Codec ID                                 : A_AC3
  55. Duration                                 : 2 h 46 min
  56. Bit rate mode                            : Constant
  57. Bit rate                                 : 640 kb/s
  58. Channel(s)                               : 6 channels
  59. Channel layout                           : L R C LFE Ls Rs
  60. Sampling rate                            : 48.0 kHz
  61. Frame rate                               : 31.250 FPS (1536 SPF)
  62. Bit depth                                : 16 bits
  63. Compression mode                         : Lossy
  64. Stream size                              : 762 MiB (4%)
  65. Title                                    : The.Death.and.Return.of.Superman.2019.1080p.BluRay.REMUX.AVC.DTS-HD.MA.5.1-FGT
  66. Language                                 : French
  67. Service kind                             : Complete Main
  68. Default                                  : No
  69. Forced                                   : No

  70. Audio #3
  71. ID                                       : 4
  72. Format                                   : AC-3
  73. Format/Info                              : Audio Coding 3
  74. Commercial name                          : Dolby Digital
  75. Codec ID                                 : A_AC3
  76. Duration                                 : 2 h 46 min
  77. Bit rate mode                            : Constant
  78. Bit rate                                 : 640 kb/s
  79. Channel(s)                               : 6 channels
  80. Channel layout                           : L R C LFE Ls Rs
  81. Sampling rate                            : 48.0 kHz
  82. Frame rate                               : 31.250 FPS (1536 SPF)
  83. Bit depth                                : 16 bits
  84. Compression mode                         : Lossy
  85. Stream size                              : 762 MiB (4%)
  86. Title                                    : The.Death.and.Return.of.Superman.2019.1080p.BluRay.REMUX.AVC.DTS-HD.MA.5.1-FGT
  87. Language                                 : German
  88. Service kind                             : Complete Main
  89. Default                                  : No
  90. Forced                                   : No

  91. Audio #4
  92. ID                                       : 5
  93. Format                                   : AC-3
  94. Format/Info                              : Audio Coding 3
  95. Commercial name                          : Dolby Digital
  96. Codec ID                                 : A_AC3
  97. Duration                                 : 2 h 46 min
  98. Bit rate mode                            : Constant
  99. Bit rate                                 : 640 kb/s
  100. Channel(s)                               : 6 channels
  101. Channel layout                           : L R C LFE Ls Rs
  102. Sampling rate                            : 48.0 kHz
  103. Frame rate                               : 31.250 FPS (1536 SPF)
  104. Bit depth                                : 16 bits
  105. Compression mode                         : Lossy
  106. Stream size                              : 762 MiB (4%)
  107. Title                                    : The.Death.and.Return.of.Superman.2019.1080p.BluRay.REMUX.AVC.DTS-HD.MA.5.1-FGT
  108. Language                                 : Spanish
  109. Service kind                             : Complete Main
  110. Default                                  : No
  111. Forced                                   : No

  112. Text #1
  113. ID                                       : 6
  114. Format                                   : UTF-8
  115. Codec ID                                 : S_TEXT/UTF8
  116. Codec ID/Info                            : UTF-8 Plain Text
  117. Duration                                 : 2 h 45 min
  118. Bit rate                                 : 56 b/s
  119. Count of elements                        : 2327
  120. Stream size                              : 68.4 KiB (0%)
  121. Title                                    : English-SRT
  122. Language                                 : English
  123. Default                                  : Yes
  124. Forced                                   : No

  125. Text #2
  126. ID                                       : 7
  127. Format                                   : PGS
  128. Muxing mode                              : zlib
  129. Codec ID                                 : S_HDMV/PGS
  130. Codec ID/Info                            : Picture based subtitle format used on BDs/HD-DVDs
  131. Duration                                 : 2 h 45 min
  132. Bit rate                                 : 33.0 kb/s
  133. Count of elements                        : 4282
  134. Stream size                              : 39.0 MiB (0%)
  135. Title                                    : English-PGS
  136. Language                                 : English
  137. Default                                  : No
  138. Forced                                   : No

  139. Text #3
  140. ID                                       : 8
  141. Format                                   : PGS
  142. Muxing mode                              : zlib
  143. Codec ID                                 : S_HDMV/PGS
  144. Codec ID/Info                            : Picture based subtitle format used on BDs/HD-DVDs
  145. Duration                                 : 2 h 45 min
  146. Bit rate                                 : 28.9 kb/s
  147. Count of elements                        : 3734
  148. Stream size                              : 34.2 MiB (0%)
  149. Title                                    : French-PGS
  150. Language                                 : French
  151. Default                                  : No
  152. Forced                                   : No

  153. Text #4
  154. ID                                       : 9
  155. Format                                   : PGS
  156. Muxing mode                              : zlib
  157. Codec ID                                 : S_HDMV/PGS
  158. Codec ID/Info                            : Picture based subtitle format used on BDs/HD-DVDs
  159. Duration                                 : 2 h 45 min
  160. Bit rate                                 : 39.9 kb/s
  161. Count of elements                        : 4344
  162. Stream size                              : 47.2 MiB (0%)
  163. Title                                    : German-PGS
  164. Language                                 : German
  165. Default                                  : No
  166. Forced                                   : No

  167. Text #5
  168. ID                                       : 10
  169. Format                                   : PGS
  170. Muxing mode                              : zlib
  171. Codec ID                                 : S_HDMV/PGS
  172. Codec ID/Info                            : Picture based subtitle format used on BDs/HD-DVDs
  173. Duration                                 : 2 h 45 min
  174. Bit rate                                 : 30.2 kb/s
  175. Count of elements                        : 3718
  176. Stream size                              : 35.7 MiB (0%)
  177. Title                                    : Dutch-PGS
  178. Language                                 : Dutch
  179. Default                                  : No
  180. Forced                                   : No

  181. Text #6
  182. ID                                       : 11
  183. Format                                   : PGS
  184. Muxing mode                              : zlib
  185. Codec ID                                 : S_HDMV/PGS
  186. Codec ID/Info                            : Picture based subtitle format used on BDs/HD-DVDs
  187. Duration                                 : 2 h 45 min
  188. Bit rate                                 : 30.2 kb/s
  189. Count of elements                        : 3750
  190. Stream size                              : 35.8 MiB (0%)
  191. Title                                    : Spanish-PGS
  192. Language                                 : Spanish
  193. Default                                  : No
  194. Forced                                   : No

  195. Text #7
  196. ID                                       : 12
  197. Format                                   : PGS
  198. Muxing mode                              : zlib
  199. Codec ID                                 : S_HDMV/PGS
  200. Codec ID/Info                            : Picture based subtitle format used on BDs/HD-DVDs
  201. Duration                                 : 2 h 45 min
  202. Bit rate                                 : 29.7 kb/s
  203. Count of elements                        : 3720
  204. Stream size                              : 35.1 MiB (0%)
  205. Title                                    : Danish-PGS
  206. Language                                 : Danish
  207. Default                                  : No
  208. Forced                                   : No

  209. Text #8
  210. ID                                       : 13
  211. Format                                   : PGS
  212. Muxing mode                              : zlib
  213. Codec ID                                 : S_HDMV/PGS
  214. Codec ID/Info                            : Picture based subtitle format used on BDs/HD-DVDs
  215. Duration                                 : 2 h 45 min
  216. Bit rate                                 : 29.0 kb/s
  217. Count of elements                        : 3732
  218. Stream size                              : 34.4 MiB (0%)
  219. Title                                    : Finnish-PGS
  220. Language                                 : Finnish
  221. Default                                  : No
  222. Forced                                   : No

  223. Text #9
  224. ID                                       : 14
  225. Format                                   : PGS
  226. Muxing mode                              : zlib
  227. Codec ID                                 : S_HDMV/PGS
  228. Codec ID/Info                            : Picture based subtitle format used on BDs/HD-DVDs
  229. Duration                                 : 2 h 45 min
  230. Bit rate                                 : 29.5 kb/s
  231. Count of elements                        : 3732
  232. Stream size                              : 34.9 MiB (0%)
  233. Title                                    : Norwegian-PGS
  234. Language                                 : Norwegian
  235. Default                                  : No
  236. Forced                                   : No

  237. Text #10
  238. ID                                       : 15
  239. Format                                   : PGS
  240. Muxing mode                              : zlib
  241. Codec ID                                 : S_HDMV/PGS
  242. Codec ID/Info                            : Picture based subtitle format used on BDs/HD-DVDs
  243. Duration                                 : 2 h 45 min
  244. Bit rate                                 : 29.4 kb/s
  245. Count of elements                        : 3733
  246. Stream size                              : 34.8 MiB (0%)
  247. Title                                    : Swedish-PGS
  248. Language                                 : Swedish
  249. Default                                  : No
  250. Forced                                   : No

  251. Text #11
  252. ID                                       : 16
  253. Format                                   : PGS
  254. Muxing mode                              : zlib
  255. Codec ID                                 : S_HDMV/PGS
  256. Codec ID/Info                            : Picture based subtitle format used on BDs/HD-DVDs
  257. Duration                                 : 2 h 34 min
  258. Bit rate                                 : 422 b/s
  259. Count of elements                        : 58
  260. Stream size                              : 478 KiB (0%)
  261. Title                                    : German-PGS
  262. Language                                 : German
  263. Default                                  : No
  264. Forced                                   : No

  265. Menu
  266. 00:00:00.000                             : en:Chapter 01
  267. 00:07:48.926                             : en:Chapter 02
  268. 00:14:28.033                             : en:Chapter 03
  269. 00:25:28.193                             : en:Chapter 04
  270. 00:33:27.839                             : en:Chapter 05
  271. 00:43:19.847                             : en:Chapter 06
  272. 00:50:19.766                             : en:Chapter 07
  273. 01:00:19.282                             : en:Chapter 08
  274. 01:09:33.878                             : en:Chapter 09
  275. 01:18:22.656                             : en:Chapter 10
  276. 01:26:38.693                             : en:Chapter 11
  277. 01:32:43.266                             : en:Chapter 12
  278. 01:40:51.879                             : en:Chapter 13
  279. 01:51:19.964                             : en:Chapter 14
  280. 01:59:28.119                             : en:Chapter 15
  281. 02:08:28.742                             : en:Chapter 16
  282. 02:17:40.126                             : en:Chapter 17
  283. 02:27:44.063                             : en:Chapter 18
  284. 02:35:26.317                             : en:Chapter 19
  285. 02:42:50.093                             : en:Chapter 20
复制代码

超人之死与超人归来 The.Death.and.Return.of.Superman.2019.1080p.BluRay.REMUX.AVC.DTS-HD.MA.5.1-FGT 21.19GB-2.png 超人之死与超人归来 The.Death.and.Return.of.Superman.2019.1080p.BluRay.REMUX.AVC.DTS-HD.MA.5.1-FGT 21.19GB-3.png 超人之死与超人归来 The.Death.and.Return.of.Superman.2019.1080p.BluRay.REMUX.AVC.DTS-HD.MA.5.1-FGT 21.19GB-4.png






VIP会员免费任意下载本站所有资源!---点击开通
回复

使用道具 举报

级别:群众演员 Lv.3

注册时间
2018-1-26
最后登录
2019-11-15
听众
3
收听
0
主题
0
蓝光币
3 枚
贡献
0 点
发表于 昨天 09:07 | 显示全部楼层
██████在-线-看-片bxxp7.c o m 】██████

██████在-线-看-片
bxxp7.c o m 】██████

██████在-线-看-片
bxxp7.c o m 】██████

██████在-线-看-片
bxxp7.c o m 】██████

██████在-线-看-片
bxxp7.c o m 】██████

██████在-线-看-片
bxxp7.c o m 】██████

██████在-线-看-片
bxxp7.c o m 】██████
VIP会员免费任意下载本站所有资源!---点击开通
回复

使用道具 举报

懒得打字嘛,点击右侧快捷回复 【右侧内容,后台自定义】
您需要登录后才可以回帖 登录 | 立即注册

本版积分规则

QQ|Archiver|手机版|小黑屋| 中国高清网 |网站地图 

GMT+8, 2019-11-15 08:30 , Processed in 0.285701 second(s), 37 queries .

Powered by HDchina X3.4

Copyright 2017-2019©HDchina.All right reserved

返回顶部 联系我们