查看: 8|回复: 0

[剧情片] 完美独裁 The.Perfect.Dictatorship.2014.DUBBED.1080p.WEBRip.x264-RARBG 2.73GB

[复制链接]

 成长值: 3160

级别:资源管理组

注册时间
2017-10-20
最后登录
2019-11-11
听众
1
收听
0
主题
86761
蓝光币
61857 枚
贡献
11119 点
发表于 4 天前 | 显示全部楼层 |阅读模式
完善独裁 The.Perfect.Dictatorship.2014.DUBBED.1080p.WEBRip.x264-RARBG 2.73GB-1.png

译  名 完善独裁 / The Perfect Dictatorship
片  名 La dictadura perfecta
年  代 2014
产  地 墨西哥
类  别 剧情 / 笑剧
语  言 西班牙语
上映日期 2014-10-16(墨西哥)
IMDb评分  7.2/10 from 4081 users
IMDb链接  https://www.imdb.com/title/tt3970854
豆瓣评分 0/10 from 0 users
豆瓣链接 https://movie.douban.com/subject/25964810/
片  长 143分钟
导  演 Luis Estrada
编  剧 Luis Estrada
主  演 Damián Alcázar
       Alfonso Herrera
       华金·科西奥 Joaquín Cosio
       Osvaldo Benavides
       Silvia Navarro
       Saúl Lisazo
       Tony Dalton


标  签 墨西哥 | 墨西哥电影 | 政治 | 嘲讽 | 2014 | 路易斯·埃斯特拉达 | 西班牙 | 男演员_墨西哥_Cosio_Joaquín

简  介  

  TV MX, the most powerful Mexican Television Corporation, discloses a scandalous story involving Governor Carmelo Vargas in serious crimes and illicit business. Governor Vargas worried about his political future, decides to clean his image and negotiates a billionaire secret agreement with the owners of the TV Corporation. Carlos Rojo, an ambitious young news producer, and Ricardo Diaz, TV network star reporter, are responsible for making a dirty campaign to change the image the public has of the corrupt Governor and make him, at any cost, a political star and a great presidential candidate. Mexican Television believes that democracy is a farce and has already placed one President... Will they do it again?
  1. Video
  2. ID                                       : 1
  3. Format                                   : AVC
  4. Format/Info                              : Advanced Video Codec
  5. Format profile                           : High@L4
  6. Format settings                          : CABAC / 4 Ref Frames
  7. Format settings, CABAC                   : Yes
  8. Format settings, Reference frames        : 4 frames
  9. Codec ID                                 : avc1
  10. Codec ID/Info                            : Advanced Video Coding
  11. Duration                                 : 2 h 23 min
  12. Bit rate                                 : 2 500 kb/s
  13. Width                                    : 1 920 pixels
  14. Height                                   : 820 pixels
  15. Display aspect ratio                     : 2.35:1
  16. Frame rate mode                          : Constant
  17. Frame rate                               : 23.976 (23976/1000) FPS
  18. Color space                              : YUV
  19. Chroma subsampling                       : 4:2:0
  20. Bit depth                                : 8 bits
  21. Scan type                                : Progressive
  22. Bits/(Pixel*Frame)                       : 0.066
  23. Stream size                              : 2.50 GiB (92%)
  24. Writing library                          : x264 core 152 r2851M ba24899
  25. Encoding settings                        : cabac=1 / ref=4 / deblock=1:-1:-1 / analyse=0x3:0x113 / me=umh / subme=9 / psy=1 / psy_rd=1.00:0.15 / mixed_ref=1 / me_range=24 / chroma_me=1 / trellis=2 / 8x8dct=1 / cqm=0 / deadzone=21,11 / fast_pskip=1 / chroma_qp_offset=-3 / threads=16 / lookahead_threads=4 / sliced_threads=0 / nr=0 / decimate=1 / interlaced=0 / bluray_compat=0 / constrained_intra=0 / bframes=3 / b_pyramid=2 / b_adapt=2 / b_bias=0 / direct=3 / weightb=1 / open_gop=0 / weightp=2 / keyint=250 / keyint_min=25 / scenecut=40 / intra_refresh=0 / rc_lookahead=50 / rc=2pass / mbtree=1 / bitrate=2500 / ratetol=1.0 / qcomp=0.60 / qpmin=0 / qpmax=69 / qpstep=4 / cplxblur=20.0 / qblur=0.5 / vbv_maxrate=31250 / vbv_bufsize=31250 / nal_hrd=none / filler=0 / ip_ratio=1.40 / aq=3:1.00
  26. Encoded date                             : UTC 2019-11-09 03:13:35
  27. Tagged date                              : UTC 2019-11-09 03:13:35
  28. Codec configuration box                  : avcC

  29. Audio
  30. ID                                       : 2
  31. Format                                   : AAC LC
  32. Format/Info                              : Advanced Audio Codec Low Complexity
  33. Codec ID                                 : mp4a-40-2
  34. Duration                                 : 2 h 23 min
  35. Duration_LastFrame                       : -11 ms
  36. Bit rate mode                            : Constant
  37. Bit rate                                 : 224 kb/s
  38. Channel(s)                               : 6 channels
  39. Channel layout                           : C L R Ls Rs LFE
  40. Sampling rate                            : 48.0 kHz
  41. Frame rate                               : 46.875 FPS (1024 SPF)
  42. Compression mode                         : Lossy
  43. Stream size                              : 230 MiB (8%)
  44. Language                                 : English
  45. Default                                  : Yes
  46. Alternate group                          : 1
  47. Encoded date                             : UTC 2019-11-09 03:13:35
  48. Tagged date                              : UTC 2019-11-09 03:13:35
复制代码

完善独裁 The.Perfect.Dictatorship.2014.DUBBED.1080p.WEBRip.x264-RARBG 2.73GB-2.png 完善独裁 The.Perfect.Dictatorship.2014.DUBBED.1080p.WEBRip.x264-RARBG 2.73GB-3.png 完善独裁 The.Perfect.Dictatorship.2014.DUBBED.1080p.WEBRip.x264-RARBG 2.73GB-4.png







VIP会员免费任意下载本站所有资源!---点击开通
回复

使用道具 举报

懒得打字嘛,点击右侧快捷回复 【右侧内容,后台自定义】
您需要登录后才可以回帖 登录 | 立即注册

本版积分规则

QQ|Archiver|手机版|小黑屋| 中国高清网 |网站地图 

GMT+8, 2019-11-15 10:43 , Processed in 0.222793 second(s), 37 queries .

Powered by HDchina X3.4

Copyright 2017-2019©HDchina.All right reserved

返回顶部 联系我们