查看: 62|回复: 1

[剧情片] 人民英雄 Peoples.Hero.1987.CHINESE.1080p.BluRay.x264.DTS-FGT 7.45GB

[复制链接]

 成长值: 3160

级别:资源管理组

注册时间
2017-10-20
最后登录
2019-11-15
听众
1
收听
0
主题
86803
蓝光币
61954 枚
贡献
11161 点
发表于 5 天前 | 显示全部楼层 |阅读模式
群众豪杰 Peoples.Hero.1987.CHINESE.1080p.BluRay.x264.DTS-FGT 7.45GB-1.png

译  名 People's Hero / 银行风云(台)
片  名 群众豪杰
年  代 1987
产  地 中国香港
类  别 剧情 / 行动 / 犯罪
语  言 粤语
上映日期 1987-12-03
IMDb评分  7.1/10 from 264 users
IMDb链接  https://www.imdb.com/title/tt0093845
豆瓣评分 7.8/10 from 5151 users
豆瓣链接 https://movie.douban.com/subject/1304753/
片  长 82分钟
导  演 尔冬升
编  剧 尔冬升 / 李百龄 / 关耀荣
主  演 狄龙
       梁朝伟
       梁家辉
       金燕玲
       秦沛
       黄斌
       林保怡
       江道海


标  签 尔冬升 | 梁朝伟 | 香港 | 狄龙 | 香港电影 | 梁家辉 | 犯罪 | 金燕玲

简  介  

  一个安静的下午,神采严重的青年阿小(梁朝伟 饰)与老妖走进了一家银行,他们为高利贷所迫,计划掠夺还债,但是老妖忽然病发,阿小慌忙之下泄露恶意,不能不仓皇上阵,打伤保镳,将银行职员与顾客扣押为人质。岂料在人质中,居然有一位警方严重通缉犯古何阳(狄龙 饰),古何阳曾击杀差人,为警方所恨之入骨,他本欲逃离港岛,眼下却不能不从阿小手中控制了银行的场面,闻讯赶来的差人们将银行团团包围,古何阳的老对手陈警官(梁家辉 饰)参加,试图与古何阳谈判换得战争结束,但警队众人只想将古击毙。被困的古何阳执意要求带狱中的女友(金燕玲 饰)一同逃走,可是女友真的出现时,紧绷的形式敏捷发生了变化……
  本片翻拍自美国影片《热天午后》。

获奖情况  

  第25届台北金马影展(1988)
  金马奖 最好男配角(提名) 狄龙
  金马奖 最好女配角(提名) 金燕玲

  第7届香港电影金像奖(1988)
  最好男配角 梁朝伟
  最好男配角(提名) 黄斌
  最好女配角 金燕玲
  1. Video
  2. ID                                       : 1
  3. Format                                   : AVC
  4. Format/Info                              : Advanced Video Codec
  5. Format profile                           : High@L4
  6. Format settings                          : CABAC / 4 Ref Frames
  7. Format settings, CABAC                   : Yes
  8. Format settings, Reference frames        : 4 frames
  9. Codec ID                                 : V_MPEG4/ISO/AVC
  10. Duration                                 : 1 h 21 min
  11. Bit rate                                 : 11.5 Mb/s
  12. Width                                    : 1 920 pixels
  13. Height                                   : 1 080 pixels
  14. Display aspect ratio                     : 16:9
  15. Frame rate mode                          : Constant
  16. Frame rate                               : 24.000 FPS
  17. Color space                              : YUV
  18. Chroma subsampling                       : 4:2:0
  19. Bit depth                                : 8 bits
  20. Scan type                                : Progressive
  21. Bits/(Pixel*Frame)                       : 0.231
  22. Stream size                              : 6.59 GiB (88%)
  23. Title                                    : Peoples.Hero.1987.CHINESE.1080p.BluRay.x264.DTS-FGT
  24. Writing library                          : x264 core 148 r2795M aaa9aa8
  25. Encoding settings                        : cabac=1 / ref=4 / deblock=1:-2:-2 / analyse=0x3:0x113 / me=umh / subme=9 / psy=1 / psy_rd=1.00:0.15 / mixed_ref=1 / me_range=16 / chroma_me=1 / trellis=2 / 8x8dct=1 / cqm=0 / deadzone=21,11 / fast_pskip=1 / chroma_qp_offset=-3 / threads=24 / lookahead_threads=3 / sliced_threads=0 / nr=0 / decimate=1 / interlaced=0 / bluray_compat=0 / constrained_intra=0 / bframes=3 / b_pyramid=2 / b_adapt=1 / b_bias=0 / direct=3 / weightb=1 / open_gop=0 / weightp=2 / keyint=250 / keyint_min=25 / scenecut=40 / intra_refresh=0 / rc_lookahead=50 / rc=2pass / mbtree=1 / bitrate=11500 / ratetol=1.0 / qcomp=0.60 / qpmin=0 / qpmax=69 / qpstep=4 / cplxblur=20.0 / qblur=0.5 / vbv_maxrate=31250 / vbv_bufsize=31250 / nal_hrd=none / filler=0 / ip_ratio=1.40 / aq=1:1.00
  26. Language                                 : Chinese
  27. Default                                  : Yes
  28. Forced                                   : No

  29. Audio
  30. ID                                       : 2
  31. Format                                   : DTS
  32. Format/Info                              : Digital Theater Systems
  33. Codec ID                                 : A_DTS
  34. Duration                                 : 1 h 21 min
  35. Bit rate mode                            : Constant
  36. Bit rate                                 : 1 509 kb/s
  37. Channel(s)                               : 6 channels
  38. Channel layout                           : C L R Ls Rs LFE
  39. Sampling rate                            : 48.0 kHz
  40. Frame rate                               : 93.750 FPS (512 SPF)
  41. Bit depth                                : 16 bits
  42. Compression mode                         : Lossy
  43. Stream size                              : 885 MiB (12%)
  44. Title                                    : Peoples.Hero.1987.CHINESE.1080p.BluRay.x264.DTS-FGT
  45. Language                                 : Chinese
  46. Default                                  : Yes
  47. Forced                                   : No

  48. Text
  49. ID                                       : 3
  50. Format                                   : UTF-8
  51. Codec ID                                 : S_TEXT/UTF8
  52. Codec ID/Info                            : UTF-8 Plain Text
  53. Duration                                 : 1 h 18 min
  54. Bit rate                                 : 50 b/s
  55. Count of elements                        : 1042
  56. Stream size                              : 29.3 KiB (0%)
  57. Language                                 : English
  58. Default                                  : Yes
  59. Forced                                   : No

  60. Menu
  61. 00:00:00.000                             : en:Chapter 01
  62. 00:04:50.916                             : en:Chapter 02
  63. 00:13:25.625                             : en:Chapter 03
  64. 00:20:41.083                             : en:Chapter 04
  65. 00:26:46.250                             : en:Chapter 05
  66. 00:34:30.208                             : en:Chapter 06
  67. 00:40:44.458                             : en:Chapter 07
  68. 00:46:34.833                             : en:Chapter 08
  69. 00:52:41.291                             : en:Chapter 09
  70. 00:57:05.041                             : en:Chapter 10
  71. 01:05:34.875                             : en:Chapter 11
  72. 01:13:34.250                             : en:Chapter 12
复制代码

群众豪杰 Peoples.Hero.1987.CHINESE.1080p.BluRay.x264.DTS-FGT 7.45GB-2.png 群众豪杰 Peoples.Hero.1987.CHINESE.1080p.BluRay.x264.DTS-FGT 7.45GB-3.png 225750si0u3oozu88iu0fo.png







VIP会员免费任意下载本站所有资源!---点击开通
回复

使用道具 举报

级别:普通观众 Lv.2

注册时间
2019-11-4
最后登录
2019-11-13
听众
0
收听
0
主题
0
蓝光币
10 枚
贡献
0 点
发表于 4 天前 | 显示全部楼层
楼主发贴辛苦了,谢谢楼主分享!我觉得中国高清电影网是注册对了!
VIP会员免费任意下载本站所有资源!---点击开通
回复

使用道具 举报

懒得打字嘛,点击右侧快捷回复 【右侧内容,后台自定义】
您需要登录后才可以回帖 登录 | 立即注册

本版积分规则

QQ|Archiver|手机版|小黑屋| 中国高清网 |网站地图 

GMT+8, 2019-11-15 21:19 , Processed in 0.224877 second(s), 37 queries .

Powered by HDchina X3.4

Copyright 2017-2019©HDchina.All right reserved

返回顶部 联系我们