查看: 62|回复: 0

[动画片] 飞跃巅峰/勇往直前 Gunbuster.The.Movie.1988.1080p.BluRay.x264-BDLiVE 7.95GB

[复制链接]

 成长值: 3160

级别:资源管理组

注册时间
2017-10-20
最后登录
2019-11-15
听众
1
收听
0
主题
86780
蓝光币
61946 枚
贡献
11138 点
发表于 5 天前 | 显示全部楼层 |阅读模式
奔腾顶峰/勇往直前 Gunbuster.The.Movie.1988.1080p.BluRay.x264-BDLiVE 7.95GB-1.png

译  名 奔腾顶峰 / 勇往直前(台) / 飞越极峰(港)
片  名 トップをねらえ!
年  代 1988
产  地 日本
类  别 剧情 / 行动 / 科幻 / 动画
语  言 日语
上映日期 1988-10-07(日本)
IMDb评分  7.7/10 from 1209 users
IMDb链接  https://www.imdb.com/title/tt0098492
豆瓣评分 8.9/10 from 4038 users
豆瓣链接 https://movie.douban.com/subject/1300798/
集  数 6
片  长 30分钟
导  演 庵野秀明 Hideaki Anno
编  剧 Hiroyuki Yamaga / Toshio Okada
主  演 日高法子 Noriko Hidaka
       佐久间玲 Rei Sakuma
       若本规夫 Norio Wakamoto
       大木民夫 Tamio ?ki
       川村万梨阿 Maria Kawamura
       矢尾一树 Kazuki Yao


标  签 庵野秀明 | GAINAX | 动画 | 日本 | 日本动画 | 科幻 | OVA | 典范

简  介  

  2015年12月30日,宇宙摸索船Luxion船主,高屋法子的父亲在宇宙中过世。少女高屋法子发愤成为像爸爸一样的宇宙驾驶员,并为之奋斗。
  6年后,高屋法子成为了中门生。黉舍开设了机械人驾驶的课程。三年级的天野和美学姐驾驶技术高明、受人爱戴,被低年级门生称为“姐姐”。新来的教练太田师长来到黉舍,要挑选2名学天生为宇宙驾驶员。“姐姐”毫无悬念的入选,但缺少机械人驾驶经历的高屋法子居然也入选了宇宙驾驶员!
  陪伴着兴奋与迷惑,高屋法子起头了宇宙驾驶员的生活,可是令她始料未及的是,她的使命是驾驶机械人,与害死父亲的外星生物战役。关系人类生死的战役义务,忽然来临在少女高屋法子的身上,她的未来将若何谱写?
  1. Video
  2. ID                                       : 1
  3. Format                                   : AVC
  4. Format/Info                              : Advanced Video Codec
  5. Format profile                           : High@L4
  6. Format settings                          : CABAC / 4 Ref Frames
  7. Format settings, CABAC                   : Yes
  8. Format settings, Reference frames        : 4 frames
  9. Codec ID                                 : V_MPEG4/ISO/AVC
  10. Duration                                 : 1 h 41 min
  11. Bit rate                                 : 10.6 Mb/s
  12. Width                                    : 1 920 pixels
  13. Height                                   : 1 080 pixels
  14. Display aspect ratio                     : 16:9
  15. Frame rate mode                          : Constant
  16. Frame rate                               : 23.976 (23976/1000) FPS
  17. Color space                              : YUV
  18. Chroma subsampling                       : 4:2:0
  19. Bit depth                                : 8 bits
  20. Scan type                                : Progressive
  21. Bits/(Pixel*Frame)                       : 0.213
  22. Stream size                              : 7.34 GiB (92%)
  23. Writing library                          : x264 core 78 r1318 fe83a90
  24. Encoding settings                        : cabac=1 / ref=4 / deblock=1:0:0 / analyse=0x3:0x133 / me=umh / subme=7 / psy=1 / psy_rd=1.0:0.0 / mixed_ref=1 / me_range=16 / chroma_me=1 / trellis=1 / 8x8dct=1 / cqm=0 / deadzone=21,11 / chroma_qp_offset=-2 / threads=6 / nr=0 / decimate=1 / mbaff=0 / constrained_intra=0 / bframes=3 / b_pyramid=0 / b_adapt=1 / b_bias=0 / direct=1 / wpredb=1 / keyint=250 / keyint_min=25 / scenecut=40 / rc_lookahead=40 / rc=2pass / mbtree=1 / bitrate=10584 / ratetol=1.0 / qcomp=0.60 / qpmin=10 / qpmax=51 / qpstep=4 / cplxblur=20.0 / qblur=0.5 / ip_ratio=1.40 / aq=1:1.00
  25. Language                                 : English
  26. Default                                  : Yes
  27. Forced                                   : No

  28. Audio
  29. ID                                       : 2
  30. Format                                   : AC-3
  31. Format/Info                              : Audio Coding 3
  32. Commercial name                          : Dolby Digital
  33. Codec ID                                 : A_AC3
  34. Duration                                 : 1 h 41 min
  35. Bit rate mode                            : Constant
  36. Bit rate                                 : 640 kb/s
  37. Channel(s)                               : 6 channels
  38. Channel layout                           : L R C LFE Ls Rs
  39. Sampling rate                            : 48.0 kHz
  40. Frame rate                               : 31.250 FPS (1536 SPF)
  41. Bit depth                                : 16 bits
  42. Compression mode                         : Lossy
  43. Stream size                              : 464 MiB (6%)
  44. Language                                 : Japanese
  45. Service kind                             : Complete Main
  46. Default                                  : Yes
  47. Forced                                   : No

  48. Text
  49. ID                                       : 3
  50. Format                                   : UTF-8
  51. Codec ID                                 : S_TEXT/UTF8
  52. Codec ID/Info                            : UTF-8 Plain Text
  53. Language                                 : English
  54. Default                                  : Yes
  55. Forced                                   : No
复制代码

奔腾顶峰/勇往直前 Gunbuster.The.Movie.1988.1080p.BluRay.x264-BDLiVE 7.95GB-2.png 奔腾顶峰/勇往直前 Gunbuster.The.Movie.1988.1080p.BluRay.x264-BDLiVE 7.95GB-3.png 奔腾顶峰/勇往直前 Gunbuster.The.Movie.1988.1080p.BluRay.x264-BDLiVE 7.95GB-4.png







VIP会员免费任意下载本站所有资源!---点击开通
回复

使用道具 举报

懒得打字嘛,点击右侧快捷回复 【右侧内容,后台自定义】
您需要登录后才可以回帖 登录 | 立即注册

本版积分规则

QQ|Archiver|手机版|小黑屋| 中国高清网 |网站地图 

GMT+8, 2019-11-15 20:37 , Processed in 0.219150 second(s), 37 queries .

Powered by HDchina X3.4

Copyright 2017-2019©HDchina.All right reserved

返回顶部 联系我们