查看: 52|回复: 1

[剧情片] 第五位病人 The.Fifth.Patient.2007.1080p.BluRay.x264-THUGLiNE 7.95GB

[复制链接]

 成长值: 3160

级别:资源管理组

注册时间
2017-10-20
最后登录
2019-11-15
听众
1
收听
0
主题
86801
蓝光币
61952 枚
贡献
11159 点
发表于 5 天前 | 显示全部楼层 |阅读模式
第五位病人 The.Fifth.Patient.2007.1080p.BluRay.x264-THUGLiNE 7.95GB-1.png

译  名 第五位病人
片  名 The Fifth Patient
年  代 2007
产  地 美国
类  别 剧情 / 惊悚
语  言 英语
上映日期 2007-06-10
IMDb评分  5.1/10 from 312 users
IMDb链接  https://www.imdb.com/title/tt0481519
豆瓣评分 0/10 from 0 users
豆瓣链接 https://movie.douban.com/subject/2055814/
导  演 Amir Mann
编  剧 Amir Mann
主  演 Nick Chinlund
       Isaach De Bankolé
       Brendan Fehr


标  签 美国 | 惊悚 | 悬疑 | 剧情 | movie | M美国 | D彼得·博格丹诺维奇 | 2007

简  介  

  暂无相关剧情先容
  1. Video
  2. ID                                       : 2
  3. Format                                   : AVC
  4. Format/Info                              : Advanced Video Codec
  5. Format profile                           : High@L4
  6. Format settings                          : CABAC / 5 Ref Frames
  7. Format settings, CABAC                   : Yes
  8. Format settings, Reference frames        : 5 frames
  9. Codec ID                                 : V_MPEG4/ISO/AVC
  10. Duration                                 : 1 h 32 min
  11. Bit rate                                 : 10.6 Mb/s
  12. Nominal bit rate                         : 11.3 Mb/s
  13. Width                                    : 1 920 pixels
  14. Height                                   : 816 pixels
  15. Display aspect ratio                     : 2.35:1
  16. Frame rate mode                          : Constant
  17. Frame rate                               : 23.976 FPS
  18. Color space                              : YUV
  19. Chroma subsampling                       : 4:2:0
  20. Bit depth                                : 8 bits
  21. Scan type                                : Progressive
  22. Bits/(Pixel*Frame)                       : 0.282
  23. Stream size                              : 6.82 GiB (86%)
  24. Writing library                          : x264 core 79 r1347 5ddd61b
  25. Encoding settings                        : cabac=1 / ref=5 / deblock=1:0:0 / analyse=0x3:0x133 / me=umh / subme=7 / psy=1 / psy_rd=1.0:0.0 / mixed_ref=1 / me_range=16 / chroma_me=1 / trellis=1 / 8x8dct=1 / cqm=0 / deadzone=21,11 / chroma_qp_offset=-2 / threads=12 / nr=0 / decimate=1 / mbaff=0 / constrained_intra=0 / bframes=3 / b_pyramid=0 / b_adapt=1 / b_bias=0 / direct=1 / wpredb=1 / wpredp=2 / keyint=250 / keyint_min=25 / scenecut=40 / rc_lookahead=40 / rc=2pass / mbtree=1 / bitrate=11319 / ratetol=1.0 / qcomp=0.60 / qpmin=10 / qpmax=51 / qpstep=4 / cplxblur=20.0 / qblur=0.5 / ip_ratio=1.40 / aq=1:1.00
  26. Language                                 : English
  27. Default                                  : No
  28. Forced                                   : No

  29. Audio
  30. ID                                       : 1
  31. Format                                   : DTS
  32. Format/Info                              : Digital Theater Systems
  33. Codec ID                                 : A_DTS
  34. Duration                                 : 1 h 32 min
  35. Bit rate mode                            : Constant
  36. Bit rate                                 : 1 509 kb/s
  37. Channel(s)                               : 6 channels
  38. Channel layout                           : C L R Ls Rs LFE
  39. Sampling rate                            : 48.0 kHz
  40. Frame rate                               : 93.750 FPS (512 SPF)
  41. Bit depth                                : 24 bits
  42. Compression mode                         : Lossy
  43. Stream size                              : 995 MiB (12%)
  44. Language                                 : English
  45. Default                                  : Yes
  46. Forced                                   : No
复制代码

第五位病人 The.Fifth.Patient.2007.1080p.BluRay.x264-THUGLiNE 7.95GB-2.png 第五位病人 The.Fifth.Patient.2007.1080p.BluRay.x264-THUGLiNE 7.95GB-3.png 第五位病人 The.Fifth.Patient.2007.1080p.BluRay.x264-THUGLiNE 7.95GB-4.png







VIP会员免费任意下载本站所有资源!---点击开通
回复

使用道具 举报

级别:普通观众 Lv.2

注册时间
2019-10-27
最后登录
2019-11-14
听众
0
收听
0
主题
0
蓝光币
21 枚
贡献
0 点
发表于 4 天前 | 显示全部楼层
楼主发贴辛苦了,谢谢楼主分享!我觉得中国高清电影网是注册对了!
VIP会员免费任意下载本站所有资源!---点击开通
回复

使用道具 举报

懒得打字嘛,点击右侧快捷回复 【右侧内容,后台自定义】
您需要登录后才可以回帖 登录 | 立即注册

本版积分规则

QQ|Archiver|手机版|小黑屋| 中国高清网 |网站地图 

GMT+8, 2019-11-15 21:04 , Processed in 0.260888 second(s), 37 queries .

Powered by HDchina X3.4

Copyright 2017-2019©HDchina.All right reserved

返回顶部 联系我们