查看: 33|回复: 0

[惊悚片] 胆破心惊2 Trilogy.Of.Terror.II.1996.1080p.BluRay.x264.DTS-FGT 8.23GB

[复制链接]

 成长值: 3140

级别:资源管理组

注册时间
2017-10-20
最后登录
2019-11-11
听众
1
收听
0
主题
86761
蓝光币
61613 枚
贡献
11119 点
发表于 3 天前 | 显示全部楼层 |阅读模式
心胆俱寒2 Trilogy.Of.Terror.II.1996.1080p.BluRay.x264.DTS-FGT 8.23GB-1.png

译  名 心胆俱寒2
片  名 Trilogy of Terror II (TV)
年  代 1996
产  地 美国
类  别 惊悚 / 可骇
语  言 英语
上映日期 1996-10-30
IMDb评分  5.7/10 from 1309 users
IMDb链接  https://www.imdb.com/title/tt0117966
豆瓣评分 7.0/10 from 72 users
豆瓣链接 https://movie.douban.com/subject/1296129/
片  长 90分钟
导  演 丹·柯蒂斯 Dan Curtis
编  剧 威廉·F·诺兰 William F. Nolan / 丹·柯蒂斯 Dan Curtis
主  演 丽赛特·安东尼 Lysette Anthony
       格兰特·维恩·戴维斯 Geraint Wyn Davies
       马特·克拉克 Matt Clark
       杰佛里·刘易斯 Geoffrey Lewis
       布莱克·赫伦 Blake Heron
       Richard Fitzpatrick
       托马斯·米切尔 Thomas Mitchell
       Gerry Quigley
       Dennis O'Connor
       John McMahon
       Alan Bridle
       Brittaney Bennett
       Norm Spencer
       Bruce McFee
       Joe Gieb


标  签 可骇 | 美国 | 惊悚 | 分段 | B级片 | CULT | 很是想看 | 心胆俱寒2

简  介  

  三个可骇短篇小说,包括:一个女人试图抢劫宅兆时碰到的故事;一个女人把她的儿子从死里召回的故事(完全照搬灭亡之夜 Dead of Night (1977)中的第三个故事);以及一个非洲娃娃新生的故事。
  1. Video
  2. ID                                       : 1
  3. Format                                   : AVC
  4. Format/Info                              : Advanced Video Codec
  5. Format profile                           : High@L4
  6. Format settings                          : CABAC / 4 Ref Frames
  7. Format settings, CABAC                   : Yes
  8. Format settings, Reference frames        : 4 frames
  9. Codec ID                                 : V_MPEG4/ISO/AVC
  10. Duration                                 : 1 h 30 min
  11. Bit rate                                 : 11.5 Mb/s
  12. Width                                    : 1 440 pixels
  13. Height                                   : 1 080 pixels
  14. Display aspect ratio                     : 4:3
  15. Frame rate mode                          : Constant
  16. Frame rate                               : 23.976 (24000/1001) FPS
  17. Color space                              : YUV
  18. Chroma subsampling                       : 4:2:0
  19. Bit depth                                : 8 bits
  20. Scan type                                : Progressive
  21. Bits/(Pixel*Frame)                       : 0.308
  22. Stream size                              : 7.27 GiB (88%)
  23. Title                                    : Trilogy.Of.Terror.II.1996.1080p.BluRay.x264.DTS-FGT
  24. Writing library                          : x264 core 148 r2748 97eaef2
  25. Encoding settings                        : cabac=1 / ref=4 / deblock=1:-2:-2 / analyse=0x3:0x113 / me=umh / subme=9 / psy=1 / psy_rd=1.00:0.15 / mixed_ref=1 / me_range=16 / chroma_me=1 / trellis=2 / 8x8dct=1 / cqm=0 / deadzone=21,11 / fast_pskip=1 / chroma_qp_offset=-3 / threads=24 / lookahead_threads=3 / sliced_threads=0 / nr=0 / decimate=1 / interlaced=0 / bluray_compat=0 / constrained_intra=0 / bframes=3 / b_pyramid=2 / b_adapt=1 / b_bias=0 / direct=3 / weightb=1 / open_gop=0 / weightp=2 / keyint=250 / keyint_min=25 / scenecut=40 / intra_refresh=0 / rc_lookahead=50 / rc=2pass / mbtree=1 / bitrate=11500 / ratetol=1.0 / qcomp=0.60 / qpmin=0 / qpmax=69 / qpstep=4 / cplxblur=20.0 / qblur=0.5 / vbv_maxrate=31250 / vbv_bufsize=31250 / nal_hrd=none / filler=0 / ip_ratio=1.40 / aq=1:1.00
  26. Language                                 : English
  27. Default                                  : Yes
  28. Forced                                   : No

  29. Audio
  30. ID                                       : 2
  31. Format                                   : DTS
  32. Format/Info                              : Digital Theater Systems
  33. Codec ID                                 : A_DTS
  34. Duration                                 : 1 h 30 min
  35. Bit rate mode                            : Constant
  36. Bit rate                                 : 1 509 kb/s
  37. Channel(s)                               : 2 channels
  38. Channel layout                           : L R
  39. Sampling rate                            : 48.0 kHz
  40. Frame rate                               : 93.750 FPS (512 SPF)
  41. Bit depth                                : 16 bits
  42. Compression mode                         : Lossy
  43. Stream size                              : 978 MiB (12%)
  44. Title                                    : Trilogy.Of.Terror.II.1996.1080p.BluRay.x264.DTS-FGT
  45. Language                                 : English
  46. Default                                  : Yes
  47. Forced                                   : No

  48. Text
  49. ID                                       : 3
  50. Format                                   : UTF-8
  51. Codec ID                                 : S_TEXT/UTF8
  52. Codec ID/Info                            : UTF-8 Plain Text
  53. Duration                                 : 1 h 26 min
  54. Bit rate                                 : 38 b/s
  55. Count of elements                        : 723
  56. Stream size                              : 24.5 KiB (0%)
  57. Language                                 : English
  58. Default                                  : Yes
  59. Forced                                   : No

  60. Menu
  61. 00:00:00.000                             : en:Chapter 1
  62. 00:11:40.199                             : en:Chapter 2
  63. 00:22:38.273                             : en:Chapter 3
  64. 00:30:43.758                             : en:Chapter 4
  65. 00:40:27.591                             : en:Chapter 5
  66. 00:57:36.578                             : en:Chapter 6
  67. 01:10:44.197                             : en:Chapter 7
  68. 01:27:43.966                             : en:Chapter 8
复制代码

心胆俱寒2 Trilogy.Of.Terror.II.1996.1080p.BluRay.x264.DTS-FGT 8.23GB-2.png 心胆俱寒2 Trilogy.Of.Terror.II.1996.1080p.BluRay.x264.DTS-FGT 8.23GB-3.png 心胆俱寒2 Trilogy.Of.Terror.II.1996.1080p.BluRay.x264.DTS-FGT 8.23GB-4.png







VIP会员免费任意下载本站所有资源!---点击开通
回复

使用道具 举报

懒得打字嘛,点击右侧快捷回复 【右侧内容,后台自定义】
您需要登录后才可以回帖 登录 | 立即注册

本版积分规则

QQ|Archiver|手机版|小黑屋| 中国高清网 |网站地图 

GMT+8, 2019-11-13 17:08 , Processed in 0.288427 second(s), 37 queries .

Powered by HDchina X3.4

Copyright 2017-2019©HDchina.All right reserved

返回顶部 联系我们