查看: 12|回复: 0

[剧情片] 漂亮宝贝/永不后悔爱上你 Guinevere.1999.1080p.AMZN.WEBRip.DDP2.0.x264-monkee 8.78GB

[复制链接]

 成长值: 3210

级别:资源管理组

注册时间
2017-10-20
最后登录
2019-11-20
听众
1
收听
0
主题
87221
蓝光币
63004 枚
贡献
11580 点
发表于 2019-11-10 22:43:06 | 显示全部楼层 |阅读模式
标致宝贝/永不后悔爱上你 Guinevere.1999.1080p.AMZN.WEBRip.DDP2.0.x264-monkee 8.78GB-1.png

译  名 标致宝贝 / 永不后悔爱上你
片  名 Guinevere
年  代 1999
产  地 美国
类  别 剧情 / 恋爱
语  言 英语
上映日期 1999-11-12
IMDb评分  6.0/10 from 2305 users
IMDb链接  https://www.imdb.com/title/tt0160338
豆瓣评分 6.7/10 from 45 users
豆瓣链接 https://movie.douban.com/subject/1294400/
片  长 104 分钟
导  演 Audrey Wells
编  剧 Audrey Wells
主  演 Sarah Polley
       Stephen Rea
       Jean Smart


标  签 恋爱 | 美国 | 莎拉·波莉 | 电影 | 美国电影 | 青春 | 标致宝贝 | 外洋电影

简  介  

  哈珀(萨拉·波莉 饰)是个与家庭隔膜颇深的年轻大学结业生,对独裁的母亲、傲岸的姐姐、冷淡的父亲很是失望,当心里孤独的哈珀在她姐姐的婚礼上见到摄影师康尼(斯蒂芬·瑞 饰)后,终觉找到了心灵的另一半。虽然康尼比她年长30岁,但面临这位诱人的爱尔兰波希米亚人,面临奇妙的恋爱感应,哈珀放弃了心仪已久的哈佛法学院,决心为了康尼改学摄影。今后她成了康尼的“标致宝贝”。但是,有一天,哈珀发现康尼的“标致宝贝”不止她一个,哈珀堕入了疾苦中……
  1. Video
  2. ID                                       : 1
  3. Format                                   : AVC
  4. Format/Info                              : Advanced Video Codec
  5. Format profile                           : High@L4
  6. Format settings                          : CABAC / 4 Ref Frames
  7. Format settings, CABAC                   : Yes
  8. Format settings, Reference frames        : 4 frames
  9. Codec ID                                 : V_MPEG4/ISO/AVC
  10. Duration                                 : 1 h 44 min
  11. Bit rate mode                            : Variable
  12. Bit rate                                 : 11.8 Mb/s
  13. Maximum bit rate                         : 15.0 Mb/s
  14. Width                                    : 1 920 pixels
  15. Height                                   : 1 040 pixels
  16. Display aspect ratio                     : 1.85:1
  17. Frame rate mode                          : Constant
  18. Frame rate                               : 23.976 (24000/1001) FPS
  19. Color space                              : YUV
  20. Chroma subsampling                       : 4:2:0
  21. Bit depth                                : 8 bits
  22. Scan type                                : Progressive
  23. Bits/(Pixel*Frame)                       : 0.245
  24. Stream size                              : 8.61 GiB (98%)
  25. Default                                  : Yes
  26. Forced                                   : No
  27. Color range                              : Limited
  28. Color primaries                          : BT.709
  29. Transfer characteristics                 : BT.709
  30. Matrix coefficients                      : BT.709

  31. Audio
  32. ID                                       : 2
  33. Format                                   : E-AC-3
  34. Format/Info                              : Enhanced AC-3
  35. Commercial name                          : Dolby Digital Plus
  36. Codec ID                                 : A_EAC3
  37. Duration                                 : 1 h 44 min
  38. Bit rate mode                            : Constant
  39. Bit rate                                 : 224 kb/s
  40. Channel(s)                               : 2 channels
  41. Channel layout                           : L R
  42. Sampling rate                            : 48.0 kHz
  43. Frame rate                               : 31.250 FPS (1536 SPF)
  44. Compression mode                         : Lossy
  45. Stream size                              : 168 MiB (2%)
  46. Language                                 : English
  47. Service kind                             : Complete Main
  48. Default                                  : Yes
  49. Forced                                   : No

  50. Text
  51. ID                                       : 3
  52. Format                                   : UTF-8
  53. Codec ID                                 : S_TEXT/UTF8
  54. Codec ID/Info                            : UTF-8 Plain Text
  55. Duration                                 : 1 h 42 min
  56. Bit rate                                 : 58 b/s
  57. Count of elements                        : 1407
  58. Stream size                              : 43.7 KiB (0%)
  59. Language                                 : English
  60. Default                                  : No
  61. Forced                                   : No
复制代码

标致宝贝/永不后悔爱上你 Guinevere.1999.1080p.AMZN.WEBRip.DDP2.0.x264-monkee 8.78GB-2.png 标致宝贝/永不后悔爱上你 Guinevere.1999.1080p.AMZN.WEBRip.DDP2.0.x264-monkee 8.78GB-3.png 224109hdjfnmyexmmjzz2x.png 标致宝贝/永不后悔爱上你 Guinevere.1999.1080p.AMZN.WEBRip.DDP2.0.x264-monkee 8.78GB-5.png 标致宝贝/永不后悔爱上你 Guinevere.1999.1080p.AMZN.WEBRip.DDP2.0.x264-monkee 8.78GB-6.png 224125i37ctzbmk7kb4zmm.png







VIP会员免费任意下载本站所有资源!---点击开通
回复

使用道具 举报

懒得打字嘛,点击右侧快捷回复 【右侧内容,后台自定义】
您需要登录后才可以回帖 登录 | 立即注册

本版积分规则

QQ|Archiver|手机版|小黑屋| 中国高清网 |网站地图

GMT+8, 2019-11-20 09:16 , Processed in 0.237993 second(s), 37 queries .

Powered by HDchina X3.4

Copyright 2017-2019©HDchina.All right reserved

返回顶部 联系我们