查看: 9|回复: 0

[喜剧片] 美丽的伪证/锁不住的惊情 Her.Alibi.1989.1080p.AMZN.WEBRip.AAC2.0.x264-ABM 6.63GB

[复制链接]

 成长值: 3230

级别:资源管理组

注册时间
2017-10-20
最后登录
2019-11-21
听众
1
收听
0
主题
87390
蓝光币
63614 枚
贡献
11749 点
发表于 2019-11-10 22:39:16 | 显示全部楼层 |阅读模式
美丽的伪证/锁不住的惊情 Her.Alibi.1989.1080p.AMZN.WEBRip.AAC2.0.x264-ABM 6.63GB-1.png

译  名 美丽的伪证 / 锁不住的惊情
片  名 Her Alibi
年  代 1989
产  地 美国
类  别 笑剧 / 恋爱 / 悬疑 / 犯罪
语  言 英语 / 罗马尼亚语 / 西班牙语
上映日期 1989-02-03
IMDb评分  5.8/10 from 6450 users
IMDb链接  https://www.imdb.com/title/tt0097500
豆瓣评分 0/10 from 0 users
豆瓣链接 https://movie.douban.com/subject/1294275/
片  长 94分钟
导  演 Bruce Beresford
编  剧 Charlie Peters
主  演 Tom Selleck
       Paulina Porizkova
       William Daniels


标  签 笑剧 | 恋爱 | 美国 | 1989 | 美国电影 | HBO | 1980s | 电影

简  介  

  一位悬疑小说作家,刚被妻子抛弃,他想藉由法庭的审案进程获得灵感创作一部小说,不意却鬼使神差地熟悉了正以谋杀罪被起诉的保利纳,并敏捷堕入了她的豪情圈套当中,自愿供给她不在谋杀现场的伪证,还邀她回家里居住,以便针对她停止新书的创作。在保利纳美丽的表面下,究竟能否是一个故意不良的蛇蝎美人呢?
  1. Video
  2. ID                                       : 1
  3. Format                                   : AVC
  4. Format/Info                              : Advanced Video Codec
  5. Format profile                           : High@L4
  6. Format settings                          : CABAC / 4 Ref Frames
  7. Format settings, CABAC                   : Yes
  8. Format settings, Reference frames        : 4 frames
  9. Format settings, GOP                     : M=4, N=48
  10. Codec ID                                 : V_MPEG4/ISO/AVC
  11. Duration                                 : 1 h 34 min
  12. Bit rate mode                            : Constant
  13. Bit rate                                 : 10 000 kb/s
  14. Width                                    : 1 920 pixels
  15. Height                                   : 1 080 pixels
  16. Display aspect ratio                     : 16:9
  17. Frame rate mode                          : Constant
  18. Frame rate                               : 23.976 (24000/1001) FPS
  19. Color space                              : YUV
  20. Chroma subsampling                       : 4:2:0
  21. Bit depth                                : 8 bits
  22. Scan type                                : Progressive
  23. Bits/(Pixel*Frame)                       : 0.201
  24. Stream size                              : 6.55 GiB (99%)
  25. Language                                 : English
  26. Default                                  : Yes
  27. Forced                                   : No
  28. Color range                              : Limited
  29. Color primaries                          : BT.709
  30. Transfer characteristics                 : BT.709
  31. Matrix coefficients                      : BT.709

  32. Audio
  33. ID                                       : 2
  34. Format                                   : AAC LC
  35. Format/Info                              : Advanced Audio Codec Low Complexity
  36. Codec ID                                 : A_AAC-2
  37. Duration                                 : 1 h 34 min
  38. Bit rate                                 : 125 kb/s
  39. Channel(s)                               : 2 channels
  40. Channel layout                           : L R
  41. Sampling rate                            : 48.0 kHz
  42. Frame rate                               : 46.875 FPS (1024 SPF)
  43. Compression mode                         : Lossy
  44. Stream size                              : 84.5 MiB (1%)
  45. Language                                 : English
  46. Default                                  : Yes
  47. Forced                                   : No

  48. Text #1
  49. ID                                       : 3
  50. Format                                   : UTF-8
  51. Codec ID                                 : S_TEXT/UTF8
  52. Codec ID/Info                            : UTF-8 Plain Text
  53. Duration                                 : 1 h 31 min
  54. Bit rate                                 : 56 b/s
  55. Count of elements                        : 1572
  56. Stream size                              : 37.6 KiB (0%)
  57. Language                                 : English
  58. Default                                  : No
  59. Forced                                   : No

  60. Text #2
  61. ID                                       : 4
  62. Format                                   : UTF-8
  63. Codec ID                                 : S_TEXT/UTF8
  64. Codec ID/Info                            : UTF-8 Plain Text
  65. Duration                                 : 1 h 31 min
  66. Bit rate                                 : 56 b/s
  67. Count of elements                        : 1608
  68. Stream size                              : 38.1 KiB (0%)
  69. Title                                    : SDH
  70. Language                                 : English
  71. Default                                  : No
  72. Forced                                   : No
复制代码

美丽的伪证/锁不住的惊情 Her.Alibi.1989.1080p.AMZN.WEBRip.AAC2.0.x264-ABM 6.63GB-2.png 223839hf84eh5hhv5fh9b8.png 美丽的伪证/锁不住的惊情 Her.Alibi.1989.1080p.AMZN.WEBRip.AAC2.0.x264-ABM 6.63GB-4.png







VIP会员免费任意下载本站所有资源!---点击开通
回复

使用道具 举报

懒得打字嘛,点击右侧快捷回复 【右侧内容,后台自定义】
您需要登录后才可以回帖 登录 | 立即注册

本版积分规则

QQ|Archiver|手机版|小黑屋| 中国高清网 |网站地图

GMT+8, 2019-11-22 05:08 , Processed in 0.229646 second(s), 37 queries .

Powered by HDchina X3.4

Copyright 2017-2019©HDchina.All right reserved

返回顶部 联系我们