查看: 11|回复: 0

[惊悚片] 家庭主妇 Housewife.2017.1080p.AMZN.WEBRip.DDP5.1.x264-NTG 4.03GB

[复制链接]

 成长值: 3160

级别:资源管理组

注册时间
2017-10-20
最后登录
2019-11-11
听众
1
收听
0
主题
86761
蓝光币
61829 枚
贡献
11119 点
发表于 5 天前 | 显示全部楼层 |阅读模式
家庭妇女 Housewife.2017.1080p.AMZN.WEBRip.DDP5.1.x264-NTG 4.03GB-1.png

译  名 家庭妇女
片  名 Housewife
年  代 2017
产  地 土耳其
类  别 悬疑 / 惊悚 / 可骇
语  言 英语
上映日期 2018-08-10(土耳其)
IMDb评分  4.8/10 from 912 users
IMDb链接  http://www.imdb.com/title/tt6464678
豆瓣评分 4.9/10 from 197 users
豆瓣链接 https://movie.douban.com/subject/27112937/
片  长 82分钟
导  演 Can Evrenol
编  剧 Can Evrenol / Cem ?züduru
主  演 克莱门泰·波达兹 Clémentine Poidatz
       大卫·樱井 David Sakurai
       Alicia Kapudag
       Defne Halman
       阿里·阿克索兹 Ali Aks?z
       Resit Berker Enhos
       Haktan Kaan Icel
       Alper Magriso


标  签 可骇 | 惊悚 | 土耳其 | 宗教 | 悬疑 | 魔幻 | 土耳其电影 | 2018

简  介  

  On a snowy eve, Little Holly's sister and father are killed by her frantic mother. Years later, Holly is married, lonely, and her life is soon about take a turn for the ultra weird, when she visits "Umbrella of Love and Mind".
  1. Video
  2. ID                                       : 1
  3. Format                                   : AVC
  4. Format/Info                              : Advanced Video Codec
  5. Format profile                           : High@L4
  6. Format settings                          : CABAC / 4 Ref Frames
  7. Format settings, CABAC                   : Yes
  8. Format settings, Reference frames        : 4 frames
  9. Codec ID                                 : V_MPEG4/ISO/AVC
  10. Duration                                 : 1 h 22 min
  11. Bit rate                                 : 6 373 kb/s
  12. Width                                    : 1 920 pixels
  13. Height                                   : 872 pixels
  14. Display aspect ratio                     : 2.2:1
  15. Original display aspect ratio            : 2.2:1
  16. Frame rate mode                          : Constant
  17. Frame rate                               : 24.000 FPS
  18. Color space                              : YUV
  19. Chroma subsampling                       : 4:2:0
  20. Bit depth                                : 8 bits
  21. Scan type                                : Progressive
  22. Bits/(Pixel*Frame)                       : 0.159
  23. Stream size                              : 3.66 GiB (91%)
  24. Default                                  : Yes
  25. Forced                                   : No
  26. Color range                              : Limited
  27. Color primaries                          : BT.709
  28. Transfer characteristics                 : BT.709
  29. Matrix coefficients                      : BT.709

  30. Audio
  31. ID                                       : 2
  32. Format                                   : E-AC-3
  33. Format/Info                              : Enhanced AC-3
  34. Commercial name                          : Dolby Digital Plus
  35. Codec ID                                 : A_EAC3
  36. Duration                                 : 1 h 22 min
  37. Bit rate mode                            : Constant
  38. Bit rate                                 : 640 kb/s
  39. Channel(s)                               : 6 channels
  40. Channel layout                           : L R C LFE Ls Rs
  41. Sampling rate                            : 48.0 kHz
  42. Frame rate                               : 31.250 FPS (1536 SPF)
  43. Compression mode                         : Lossy
  44. Stream size                              : 377 MiB (9%)
  45. Language                                 : English
  46. Service kind                             : Complete Main
  47. Default                                  : Yes
  48. Forced                                   : No

  49. Text #1
  50. ID                                       : 3
  51. Format                                   : UTF-8
  52. Codec ID                                 : S_TEXT/UTF8
  53. Codec ID/Info                            : UTF-8 Plain Text
  54. Duration                                 : 1 h 21 min
  55. Bit rate                                 : 32 b/s
  56. Count of elements                        : 770
  57. Stream size                              : 19.2 KiB (0%)
  58. Title                                    : SDH
  59. Language                                 : English
  60. Default                                  : No
  61. Forced                                   : No

  62. Text #2
  63. ID                                       : 4
  64. Format                                   : UTF-8
  65. Codec ID                                 : S_TEXT/UTF8
  66. Codec ID/Info                            : UTF-8 Plain Text
  67. Duration                                 : 1 h 20 min
  68. Bit rate                                 : 27 b/s
  69. Count of elements                        : 629
  70. Stream size                              : 16.2 KiB (0%)
  71. Language                                 : Spanish
  72. Default                                  : No
  73. Forced                                   : No

  74. Text #3
  75. ID                                       : 5
  76. Format                                   : UTF-8
  77. Codec ID                                 : S_TEXT/UTF8
  78. Codec ID/Info                            : UTF-8 Plain Text
  79. Duration                                 : 1 h 20 min
  80. Bit rate                                 : 28 b/s
  81. Count of elements                        : 623
  82. Stream size                              : 16.8 KiB (0%)
  83. Language                                 : French
  84. Default                                  : No
  85. Forced                                   : No
复制代码

家庭妇女 Housewife.2017.1080p.AMZN.WEBRip.DDP5.1.x264-NTG 4.03GB-2.png 家庭妇女 Housewife.2017.1080p.AMZN.WEBRip.DDP5.1.x264-NTG 4.03GB-3.png 家庭妇女 Housewife.2017.1080p.AMZN.WEBRip.DDP5.1.x264-NTG 4.03GB-4.png







VIP会员免费任意下载本站所有资源!---点击开通
回复

使用道具 举报

懒得打字嘛,点击右侧快捷回复 【右侧内容,后台自定义】
您需要登录后才可以回帖 登录 | 立即注册

本版积分规则

QQ|Archiver|手机版|小黑屋| 中国高清网 |网站地图 

GMT+8, 2019-11-15 08:53 , Processed in 0.264035 second(s), 37 queries .

Powered by HDchina X3.4

Copyright 2017-2019©HDchina.All right reserved

返回顶部 联系我们