查看: 9|回复: 0

[犯罪片] 艰难的审判/误判 Judicial.Indiscretion.2007.1080p.AMZN.WEBRip.DDP2.0.x264-ABM 8.19GB

[复制链接]

 成长值: 3160

级别:资源管理组

注册时间
2017-10-20
最后登录
2019-11-11
听众
1
收听
0
主题
86761
蓝光币
61813 枚
贡献
11119 点
发表于 5 天前 | 显示全部楼层 |阅读模式
艰难的审判/误判 Judicial.Indiscretion.2007.1080p.AMZN.WEBRip.DDP2.0.x264-ABM 8.19GB-1.png

译  名 艰难的审判 / 误判
片  名 Judicial Indiscretion
年  代 2007
产  地 加拿大
语  言 英语
上映日期 2007-04-07
IMDb评分  5.3/10 from 229 users
IMDb链接  https://www.imdb.com/title/tt0913399
豆瓣评分 0/10 from 0 users
豆瓣链接 https://movie.douban.com/subject/3118268/
导  演 George Mendeluk
编  剧 George Mendeluk
主  演 Anne Archer
       Michael Shanks


标  签 法官 | 犯罪 | 美国 | 法令 | 最高法院 | 文艺 | 总统 | 勒索

简  介  

  莫妮卡( 安妮亞契飾)是個傑出的法官,她堅持法令正義,在法界具有聲望,能够成為美國最高法院法官的提名流。某日,莫妮卡到舊金山度假,碰到愛爾蘭作家傑克(麥可夏克飾)搭訕並被他用迷藥下酒強姦 ,並不斷騷擾。其後,莫妮卡正式被總統提名為最高法院法官候選人,並開始進行宣傳活動,但被支持的參議員要求退出法官提名活動......
  1. Video
  2. ID                                       : 1
  3. Format                                   : AVC
  4. Format/Info                              : Advanced Video Codec
  5. Format profile                           : High@L4
  6. Format settings                          : CABAC / 4 Ref Frames
  7. Format settings, CABAC                   : Yes
  8. Format settings, Reference frames        : 4 frames
  9. Codec ID                                 : V_MPEG4/ISO/AVC
  10. Duration                                 : 1 h 29 min
  11. Bit rate                                 : 12.7 Mb/s
  12. Width                                    : 1 920 pixels
  13. Height                                   : 1 080 pixels
  14. Display aspect ratio                     : 16:9
  15. Frame rate mode                          : Constant
  16. Frame rate                               : 23.976 (24000/1001) FPS
  17. Color space                              : YUV
  18. Chroma subsampling                       : 4:2:0
  19. Bit depth                                : 8 bits
  20. Scan type                                : Progressive
  21. Bits/(Pixel*Frame)                       : 0.255
  22. Stream size                              : 7.88 GiB (96%)
  23. Language                                 : English
  24. Default                                  : Yes
  25. Forced                                   : No
  26. Color range                              : Limited
  27. Color primaries                          : BT.709
  28. Transfer characteristics                 : BT.709
  29. Matrix coefficients                      : BT.709

  30. Audio
  31. ID                                       : 2
  32. Format                                   : E-AC-3
  33. Format/Info                              : Enhanced AC-3
  34. Commercial name                          : Dolby Digital Plus
  35. Codec ID                                 : A_EAC3
  36. Duration                                 : 1 h 29 min
  37. Bit rate mode                            : Constant
  38. Bit rate                                 : 224 kb/s
  39. Channel(s)                               : 2 channels
  40. Channel layout                           : L R
  41. Sampling rate                            : 48.0 kHz
  42. Frame rate                               : 31.250 FPS (1536 SPF)
  43. Compression mode                         : Lossy
  44. Stream size                              : 143 MiB (2%)
  45. Language                                 : English
  46. Service kind                             : Complete Main
  47. Default                                  : Yes
  48. Forced                                   : No

  49. Text #1
  50. ID                                       : 3
  51. Format                                   : UTF-8
  52. Codec ID                                 : S_TEXT/UTF8
  53. Codec ID/Info                            : UTF-8 Plain Text
  54. Language                                 : English
  55. Default                                  : No
  56. Forced                                   : No

  57. Text #2
  58. ID                                       : 4
  59. Format                                   : UTF-8
  60. Codec ID                                 : S_TEXT/UTF8
  61. Codec ID/Info                            : UTF-8 Plain Text
  62. Title                                    : SDH
  63. Language                                 : English
  64. Default                                  : No
  65. Forced                                   : No
复制代码

艰难的审判/误判 Judicial.Indiscretion.2007.1080p.AMZN.WEBRip.DDP2.0.x264-ABM 8.19GB-2.png 艰难的审判/误判 Judicial.Indiscretion.2007.1080p.AMZN.WEBRip.DDP2.0.x264-ABM 8.19GB-3.png 艰难的审判/误判 Judicial.Indiscretion.2007.1080p.AMZN.WEBRip.DDP2.0.x264-ABM 8.19GB-4.png







VIP会员免费任意下载本站所有资源!---点击开通
回复

使用道具 举报

懒得打字嘛,点击右侧快捷回复 【右侧内容,后台自定义】
您需要登录后才可以回帖 登录 | 立即注册

本版积分规则

QQ|Archiver|手机版|小黑屋| 中国高清网 |网站地图 

GMT+8, 2019-11-15 08:01 , Processed in 0.247675 second(s), 37 queries .

Powered by HDchina X3.4

Copyright 2017-2019©HDchina.All right reserved

返回顶部 联系我们