查看: 9|回复: 0

[剧情片] 恋恋巴黎/幸福合作社 Le.Divorce.2003.1080p.AMZN.WEBRip.DDP5.1.x264-ABM 5.20GB

[复制链接]

 成长值: 3160

级别:资源管理组

注册时间
2017-10-20
最后登录
2019-11-15
听众
1
收听
0
主题
86768
蓝光币
61946 枚
贡献
11126 点
发表于 5 天前 | 显示全部楼层 |阅读模式
恋恋巴黎/幸运合作社 Le.Divorce.2003.1080p.AMZN.WEBRip.DDP5.1.x264-ABM 5.20GB-1.png

译  名 恋恋巴黎 / 幸运合作社 / 仳离
片  名 Le divorce
年  代 2003
产  地 法国 / 美国
类  别 剧情 / 笑剧 / 恋爱
语  言 英语 / 法语
上映日期 2003-08-29
IMDb评分  4.9/10 from 10682 users
IMDb链接  https://www.imdb.com/title/tt0306734
豆瓣评分 6.5/10 from 943 users
豆瓣链接 https://movie.douban.com/subject/1297565/
片  长 117 分钟
导  演 詹姆斯·伊沃里 James Ivory
编  剧 詹姆斯·伊沃里 James Ivory / 鲁丝·普罗厄·贾布瓦拉 Ruth Prawer Jhabvala
主  演 凯特·哈德森 Kate Hudson
       娜奥米·沃茨 Naomi Watts
       斯托卡特·詹宁 Stockard Channing
       罗曼·杜里斯 Romain Duris
       梅尔维尔·珀波 Melvil Poupaud
       蒂埃里·莱尔米特 Thierry Lhermitte
       莱斯利·卡伦 Leslie Caron
       格伦·克洛斯 Glenn Close
       斯蒂芬·弗雷 Stephen Fry


标  签 恋爱 | 美国 | 法国 | NaomiWatts | KateHudson | 美国电影 | 2003 | 法國

简  介  

  由于受不了松散的校纪校规,女孩伊莎贝尔(凯特·哈德森 Kate Hudson 饰)决然分开了电影学院,过上了她所渴望的自在生活。伊莎贝尔的姐姐罗茜妮(娜奥米·沃茨 Naomi Watts 饰)假寓于法国巴黎,身怀六甲的她惨遭画家丈夫查尔斯(梅尔维尔·珀波 Melvil Poupaud 饰)的变节,愤慨的罗茜妮决议仳离,她给伊莎贝尔写了一封信,希望自己的妹妹可以来到自己身旁,支持和陪伴她度过这一段艰难期间。
  一次偶然中,伊莎贝尔结识了名叫埃德加(蒂埃里·莱尔米特 Thierry Lhermitte 饰)的法国交际官,虽然埃德加已经是一个七十岁高龄的老人了,但伊莎贝尔照旧拜倒在了他的大方风雅微风姿潇洒当中。虽然伊莎贝尔和埃德加上间的爱情并不被他人所看好,但伊莎贝尔仍然对峙着自己的想法和信心,直到某一日,她发现,埃德加居然是自己的亲戚。
  1. Video
  2. ID                                       : 1
  3. Format                                   : AVC
  4. Format/Info                              : Advanced Video Codec
  5. Format profile                           : High@L4
  6. Format settings                          : CABAC / 4 Ref Frames
  7. Format settings, CABAC                   : Yes
  8. Format settings, Reference frames        : 4 frames
  9. Codec ID                                 : V_MPEG4/ISO/AVC
  10. Duration                                 : 1 h 57 min
  11. Bit rate mode                            : Variable
  12. Bit rate                                 : 5 704 kb/s
  13. Maximum bit rate                         : 15.0 Mb/s
  14. Width                                    : 1 920 pixels
  15. Height                                   : 800 pixels
  16. Display aspect ratio                     : 2.40:1
  17. Frame rate mode                          : Constant
  18. Frame rate                               : 23.976 (24000/1001) FPS
  19. Color space                              : YUV
  20. Chroma subsampling                       : 4:2:0
  21. Bit depth                                : 8 bits
  22. Scan type                                : Progressive
  23. Bits/(Pixel*Frame)                       : 0.155
  24. Stream size                              : 4.67 GiB (90%)
  25. Writing library                          : x264 core 148 r2623 d5b2374
  26. Encoding settings                        : cabac=1 / ref=4 / deblock=1:-1:-1 / analyse=0x3:0x133 / me=umh / subme=9 / psy=1 / psy_rd=1.00:0.15 / mixed_ref=1 / me_range=24 / chroma_me=1 / trellis=2 / 8x8dct=1 / cqm=0 / deadzone=21,11 / fast_pskip=1 / chroma_qp_offset=-3 / threads=25 / lookahead_threads=4 / sliced_threads=0 / nr=150 / decimate=1 / interlaced=0 / bluray_compat=0 / constrained_intra=0 / bframes=8 / b_pyramid=2 / b_adapt=2 / b_bias=0 / direct=3 / weightb=1 / open_gop=0 / weightp=2 / keyint=120 / keyint_min=61 / scenecut=0 / intra_refresh=0 / rc_lookahead=120 / rc=crf / mbtree=1 / crf=18.0 / qcomp=0.60 / qpmin=0 / qpmax=69 / qpstep=4 / vbv_maxrate=15000 / vbv_bufsize=31250 / crf_max=0.0 / nal_hrd=vbr / filler=0 / ip_ratio=1.40 / aq=3:1.00
  27. Default                                  : Yes
  28. Forced                                   : No
  29. Color range                              : Limited
  30. Color primaries                          : BT.709
  31. Transfer characteristics                 : BT.709
  32. Matrix coefficients                      : BT.709

  33. Audio
  34. ID                                       : 2
  35. Format                                   : E-AC-3
  36. Format/Info                              : Enhanced AC-3
  37. Commercial name                          : Dolby Digital Plus
  38. Codec ID                                 : A_EAC3
  39. Duration                                 : 1 h 57 min
  40. Bit rate mode                            : Constant
  41. Bit rate                                 : 640 kb/s
  42. Channel(s)                               : 6 channels
  43. Channel layout                           : L R C LFE Ls Rs
  44. Sampling rate                            : 48.0 kHz
  45. Frame rate                               : 31.250 FPS (1536 SPF)
  46. Compression mode                         : Lossy
  47. Stream size                              : 537 MiB (10%)
  48. Language                                 : English
  49. Service kind                             : Complete Main
  50. Default                                  : Yes
  51. Forced                                   : No

  52. Text
  53. ID                                       : 3
  54. Format                                   : UTF-8
  55. Codec ID                                 : S_TEXT/UTF8
  56. Codec ID/Info                            : UTF-8 Plain Text
  57. Duration                                 : 1 h 53 min
  58. Bit rate                                 : 71 b/s
  59. Count of elements                        : 1536
  60. Stream size                              : 59.5 KiB (0%)
  61. Language                                 : English
  62. Default                                  : No
  63. Forced                                   : No

  64. Menu
  65. 00:00:00.000                             : en:(Unnamed scene)
  66. 00:00:27.000                             : en:(Unnamed scene)
  67. 00:03:06.000                             : en:(Unnamed scene)
  68. 00:06:15.000                             : en:(Unnamed scene)
  69. 00:07:55.000                             : en:(Unnamed scene)
  70. 00:09:08.000                             : en:(Unnamed scene)
  71. 00:11:08.000                             : en:(Unnamed scene)
  72. 00:12:13.000                             : en:(Unnamed scene)
  73. 00:14:45.000                             : en:(Unnamed scene)
  74. 00:15:43.000                             : en:(Unnamed scene)
  75. 00:17:15.000                             : en:(Unnamed scene)
  76. 00:19:26.000                             : en:(Unnamed scene)
  77. 00:21:31.000                             : en:(Unnamed scene)
  78. 00:23:44.000                             : en:(Unnamed scene)
  79. 00:25:55.000                             : en:(Unnamed scene)
  80. 00:27:30.000                             : en:(Unnamed scene)
  81. 00:29:57.000                             : en:(Unnamed scene)
  82. 00:31:28.000                             : en:(Unnamed scene)
  83. 00:32:46.000                             : en:(Unnamed scene)
  84. 00:35:15.000                             : en:(Unnamed scene)
  85. 00:37:25.000                             : en:(Unnamed scene)
  86. 00:39:39.000                             : en:(Unnamed scene)
  87. 00:41:22.000                             : en:(Unnamed scene)
  88. 00:44:22.000                             : en:(Unnamed scene)
  89. 00:48:05.000                             : en:(Unnamed scene)
  90. 00:50:59.000                             : en:(Unnamed scene)
  91. 00:55:19.000                             : en:(Unnamed scene)
  92. 00:57:40.000                             : en:(Unnamed scene)
  93. 00:58:59.000                             : en:(Unnamed scene)
  94. 01:00:36.000                             : en:(Unnamed scene)
  95. 01:02:44.000                             : en:(Unnamed scene)
  96. 01:04:50.000                             : en:(Unnamed scene)
  97. 01:05:57.000                             : en:(Unnamed scene)
  98. 01:08:37.000                             : en:(Unnamed scene)
  99. 01:10:15.000                             : en:(Unnamed scene)
  100. 01:11:24.000                             : en:(Unnamed scene)
  101. 01:16:47.000                             : en:(Unnamed scene)
  102. 01:17:39.000                             : en:(Unnamed scene)
  103. 01:20:59.000                             : en:(Unnamed scene)
  104. 01:22:50.000                             : en:(Unnamed scene)
  105. 01:25:10.000                             : en:(Unnamed scene)
  106. 01:26:29.000                             : en:(Unnamed scene)
  107. 01:30:09.000                             : en:(Unnamed scene)
  108. 01:32:59.000                             : en:(Unnamed scene)
  109. 01:35:06.000                             : en:(Unnamed scene)
  110. 01:37:02.000                             : en:(Unnamed scene)
  111. 01:38:47.000                             : en:(Unnamed scene)
  112. 01:41:39.000                             : en:(Unnamed scene)
  113. 01:44:52.000                             : en:(Unnamed scene)
  114. 01:47:13.000                             : en:(Unnamed scene)
  115. 01:49:57.000                             : en:(Unnamed scene)
  116. 01:52:56.000                             : en:(Unnamed scene)
  117. 01:54:23.000                             : en:(Unnamed scene)
复制代码

恋恋巴黎/幸运合作社 Le.Divorce.2003.1080p.AMZN.WEBRip.DDP5.1.x264-ABM 5.20GB-2.png 恋恋巴黎/幸运合作社 Le.Divorce.2003.1080p.AMZN.WEBRip.DDP5.1.x264-ABM 5.20GB-3.png 恋恋巴黎/幸运合作社 Le.Divorce.2003.1080p.AMZN.WEBRip.DDP5.1.x264-ABM 5.20GB-4.png 223324s3gky4zmg88zzjnh.png 恋恋巴黎/幸运合作社 Le.Divorce.2003.1080p.AMZN.WEBRip.DDP5.1.x264-ABM 5.20GB-6.png 恋恋巴黎/幸运合作社 Le.Divorce.2003.1080p.AMZN.WEBRip.DDP5.1.x264-ABM 5.20GB-7.png







VIP会员免费任意下载本站所有资源!---点击开通
回复

使用道具 举报

懒得打字嘛,点击右侧快捷回复 【右侧内容,后台自定义】
您需要登录后才可以回帖 登录 | 立即注册

本版积分规则

QQ|Archiver|手机版|小黑屋| 中国高清网 |网站地图 

GMT+8, 2019-11-15 20:10 , Processed in 0.248804 second(s), 37 queries .

Powered by HDchina X3.4

Copyright 2017-2019©HDchina.All right reserved

返回顶部 联系我们