查看: 8|回复: 0

[喜剧片] 放电无罪/仲夏夜春梦 One.Night.at.McCools.2001.1080p.AMZN.WEBRip.DDP5.1.x264-monkee 9.49GB

[复制链接]

 成长值: 3140

级别:资源管理组

注册时间
2017-10-20
最后登录
2019-11-11
听众
1
收听
0
主题
86761
蓝光币
61613 枚
贡献
11119 点
发表于 3 天前 | 显示全部楼层 |阅读模式
放电无罪/仲夏夜春梦 One.Night.at.McCools.2001.1080p.AMZN.WEBRip.DDP5.1.x264-monkee 9.49GB-1.png

译  名 放电无罪 / 仲夏夜春梦 / 麦克库之夜
片  名 One Night at McCool's
年  代 2001
产  地 美国
类  别 笑剧 / 犯罪
语  言 英语 / 西班牙语
上映日期 2001-04-27
IMDb评分  6.1/10 from 27704 users
IMDb链接  https://www.imdb.com/title/tt0203755
豆瓣评分 7.1/10 from 1345 users
豆瓣链接 https://movie.douban.com/subject/1305072/
片  长 93 分钟
导  演 Harald Zwart
编  剧 Stan Seidel
主  演 Matt Dillon
       Liv Tyler
       Michael Douglas
       John Goodman
       Richard Jenkins


标  签 美国 | 笑剧 | 黑色诙谐 | 丽芙·泰勒 | 犯罪 | 美国电影 | LivTyler | Liv.Tyler

简  介  

  故事发生在一间名为“麦克库”的酒吧中,侍者蓝迪(马特·狄龙 Matt Dillon 饰)、警探德林(约翰·古德曼 John Goodman 饰)和律师卡尔(Mary Jo Smith 饰)是酒吧的常客。在来交常常的人群中,已经再无什么亮点可以吸引这三个“老玩家”的留意了,不外,一个名为朱尔(丽芙·泰勒 Liv Tyler 饰)的性感美男的出现改变了这一场面。
  蓝迪、德林和卡尔都为朱尔的美貌所倾倒,她身上那种致命的引诱力令三个大汉子颠三倒四。为了获得朱尔的亲睐,三个半斤八两的汉子之间展开了一场“恶战”,但是,就在“战争”白热化之时,三人材渐渐发现,朱尔并非概况上看起来的那样简单,在她的心里中,隐藏了一个既危险又惊人的奥秘。
  1. Video
  2. ID                                       : 1
  3. Format                                   : AVC
  4. Format/Info                              : Advanced Video Codec
  5. Format profile                           : High@L4
  6. Format settings                          : CABAC / 4 Ref Frames
  7. Format settings, CABAC                   : Yes
  8. Format settings, Reference frames        : 4 frames
  9. Codec ID                                 : V_MPEG4/ISO/AVC
  10. Duration                                 : 1 h 33 min
  11. Bit rate                                 : 14.0 Mb/s
  12. Width                                    : 1 920 pixels
  13. Height                                   : 1 080 pixels
  14. Display aspect ratio                     : 16:9
  15. Frame rate mode                          : Constant
  16. Frame rate                               : 23.976 (24000/1001) FPS
  17. Color space                              : YUV
  18. Chroma subsampling                       : 4:2:0
  19. Bit depth                                : 8 bits
  20. Scan type                                : Progressive
  21. Bits/(Pixel*Frame)                       : 0.281
  22. Stream size                              : 9.08 GiB (96%)
  23. Default                                  : Yes
  24. Forced                                   : No
  25. Color range                              : Limited
  26. Color primaries                          : BT.709
  27. Transfer characteristics                 : BT.709
  28. Matrix coefficients                      : BT.709

  29. Audio
  30. ID                                       : 2
  31. Format                                   : E-AC-3
  32. Format/Info                              : Enhanced AC-3
  33. Commercial name                          : Dolby Digital Plus
  34. Codec ID                                 : A_EAC3
  35. Duration                                 : 1 h 33 min
  36. Bit rate mode                            : Constant
  37. Bit rate                                 : 640 kb/s
  38. Channel(s)                               : 6 channels
  39. Channel layout                           : L R C LFE Ls Rs
  40. Sampling rate                            : 48.0 kHz
  41. Frame rate                               : 31.250 FPS (1536 SPF)
  42. Compression mode                         : Lossy
  43. Stream size                              : 426 MiB (4%)
  44. Language                                 : English
  45. Service kind                             : Complete Main
  46. Default                                  : Yes
  47. Forced                                   : No
复制代码

放电无罪/仲夏夜春梦 One.Night.at.McCools.2001.1080p.AMZN.WEBRip.DDP5.1.x264-monkee 9.49GB-2.png 放电无罪/仲夏夜春梦 One.Night.at.McCools.2001.1080p.AMZN.WEBRip.DDP5.1.x264-monkee 9.49GB-3.png 放电无罪/仲夏夜春梦 One.Night.at.McCools.2001.1080p.AMZN.WEBRip.DDP5.1.x264-monkee 9.49GB-4.png







VIP会员免费任意下载本站所有资源!---点击开通
回复

使用道具 举报

懒得打字嘛,点击右侧快捷回复 【右侧内容,后台自定义】
您需要登录后才可以回帖 登录 | 立即注册

本版积分规则

QQ|Archiver|手机版|小黑屋| 中国高清网 |网站地图 

GMT+8, 2019-11-13 17:04 , Processed in 24.629619 second(s), 37 queries .

Powered by HDchina X3.4

Copyright 2017-2019©HDchina.All right reserved

返回顶部 联系我们