查看: 8|回复: 0

[喜剧片] 萨拉·西尔弗曼:一尘不染/莎拉·席尔蔓:一颗尘埃 Sarah.Silverman.A.Speck.of.Dust.2017.1080p.NF.WEBRip.DD5.1.x264-FGT 2.49GB

[复制链接]

 成长值: 3210

级别:资源管理组

注册时间
2017-10-20
最后登录
2019-11-20
听众
1
收听
0
主题
87250
蓝光币
63202 枚
贡献
11609 点
发表于 2019-11-10 22:27:55 | 显示全部楼层 |阅读模式
萨拉·西尔弗曼:一尘不染/莎拉·席尔蔓:一颗灰尘 Sarah.Silverman.A.Speck.of.Dust.2017.1080p.NF.WEBRip.DD5.1.x264-FGT 2.49GB-1.png

译  名 萨拉·西尔弗曼:一尘不染 / 莎拉·席尔蔓:一颗灰尘(港) / 萨拉·丝沃曼:一尘不染
片  名 Sarah Silverman: A Speck of Dust
年  代 2017
产  地 美国
类  别 笑剧
语  言 英语
上映日期 2017-05-30(美国)
IMDb评分  6.8/10 from 2885 users
IMDb链接  https://www.imdb.com/title/tt6948354
豆瓣评分 7.3/10 from 322 users
豆瓣链接 https://movie.douban.com/subject/27060162/
片  长 71分钟
编  剧 萨拉·西尔弗曼 Sarah Silverman
主  演 萨拉·西尔弗曼 Sarah Silverman


标  签 Stand-Up | Netflix | 美国 | 脱口秀 | Comedy | 笑剧 | 2017 | stand-up

简  介  

  在死里逃生以后的首个笑剧特辑中,萨拉·西尔弗曼分享一系列风趣的究竟、可悲的真相和任性而为的瞬间。
  在二十余载的职业生活中,西尔弗曼曾获得五次艾美奖提名,其中两次捧回奖杯。
  1. Video
  2. ID                                       : 1
  3. Format                                   : AVC
  4. Format/Info                              : Advanced Video Codec
  5. Format profile                           : High@L4
  6. Format settings                          : CABAC / 4 Ref Frames
  7. Format settings, CABAC                   : Yes
  8. Format settings, Reference frames        : 4 frames
  9. Codec ID                                 : V_MPEG4/ISO/AVC
  10. Duration                                 : 1 h 11 min
  11. Bit rate                                 : 4 636 kb/s
  12. Width                                    : 1 920 pixels
  13. Height                                   : 1 012 pixels
  14. Display aspect ratio                     : 1.897
  15. Frame rate mode                          : Constant
  16. Frame rate                               : 23.976 (24000/1001) FPS
  17. Color space                              : YUV
  18. Chroma subsampling                       : 4:2:0
  19. Bit depth                                : 8 bits
  20. Scan type                                : Progressive
  21. Bits/(Pixel*Frame)                       : 0.100
  22. Stream size                              : 2.30 GiB (92%)
  23. Writing library                          : x264 core 148 r2744 b97ae06
  24. Encoding settings                        : cabac=1 / ref=4 / deblock=1:-3:-3 / analyse=0x3:0x133 / me=umh / subme=11 / psy=1 / psy_rd=1.00:0.15 / mixed_ref=1 / me_range=48 / chroma_me=1 / trellis=2 / 8x8dct=1 / cqm=0 / deadzone=21,11 / fast_pskip=0 / chroma_qp_offset=-3 / threads=12 / lookahead_threads=3 / sliced_threads=0 / nr=0 / decimate=0 / interlaced=0 / bluray_compat=0 / constrained_intra=0 / bframes=10 / b_pyramid=2 / b_adapt=2 / b_bias=0 / direct=3 / weightb=1 / open_gop=0 / weightp=2 / keyint=250 / keyint_min=23 / scenecut=40 / intra_refresh=0 / rc=crf / mbtree=0 / crf=18.0 / qcomp=0.60 / qpmin=0 / qpmax=69 / qpstep=4 / ip_ratio=1.40 / pb_ratio=1.30 / aq=3:0.70
  25. Language                                 : English
  26. Default                                  : Yes
  27. Forced                                   : No

  28. Audio
  29. ID                                       : 2
  30. Format                                   : AC-3
  31. Format/Info                              : Audio Coding 3
  32. Commercial name                          : Dolby Digital
  33. Codec ID                                 : A_AC3
  34. Duration                                 : 1 h 11 min
  35. Bit rate mode                            : Constant
  36. Bit rate                                 : 384 kb/s
  37. Channel(s)                               : 6 channels
  38. Channel layout                           : L R C LFE Ls Rs
  39. Sampling rate                            : 48.0 kHz
  40. Frame rate                               : 31.250 FPS (1536 SPF)
  41. Bit depth                                : 16 bits
  42. Compression mode                         : Lossy
  43. Stream size                              : 195 MiB (8%)
  44. Language                                 : English
  45. Service kind                             : Complete Main
  46. Default                                  : Yes
  47. Forced                                   : No

  48. Text #1
  49. ID                                       : 3
  50. Format                                   : UTF-8
  51. Codec ID                                 : S_TEXT/UTF8
  52. Codec ID/Info                            : UTF-8 Plain Text
  53. Duration                                 : 1 h 10 min
  54. Bit rate                                 : 96 b/s
  55. Count of elements                        : 1400
  56. Stream size                              : 49.7 KiB (0%)
  57. Title                                    : English
  58. Language                                 : English
  59. Default                                  : No
  60. Forced                                   : No

  61. Text #2
  62. ID                                       : 4
  63. Format                                   : UTF-8
  64. Codec ID                                 : S_TEXT/UTF8
  65. Codec ID/Info                            : UTF-8 Plain Text
  66. Duration                                 : 1 h 10 min
  67. Bit rate                                 : 84 b/s
  68. Count of elements                        : 1246
  69. Stream size                              : 43.8 KiB (0%)
  70. Title                                    : Spanish
  71. Language                                 : Spanish
  72. Default                                  : No
  73. Forced                                   : No

  74. Text #3
  75. ID                                       : 5
  76. Format                                   : UTF-8
  77. Codec ID                                 : S_TEXT/UTF8
  78. Codec ID/Info                            : UTF-8 Plain Text
  79. Duration                                 : 1 h 10 min
  80. Bit rate                                 : 84 b/s
  81. Count of elements                        : 1254
  82. Stream size                              : 44.0 KiB (0%)
  83. Title                                    : French
  84. Language                                 : French
  85. Default                                  : No
  86. Forced                                   : No

  87. Text #4
  88. ID                                       : 6
  89. Format                                   : UTF-8
  90. Codec ID                                 : S_TEXT/UTF8
  91. Codec ID/Info                            : UTF-8 Plain Text
  92. Duration                                 : 1 h 10 min
  93. Bit rate                                 : 125 b/s
  94. Count of elements                        : 1244
  95. Stream size                              : 65.0 KiB (0%)
  96. Title                                    : Arabic
  97. Language                                 : Arabic
  98. Default                                  : No
  99. Forced                                   : No

  100. Text #5
  101. ID                                       : 7
  102. Format                                   : UTF-8
  103. Codec ID                                 : S_TEXT/UTF8
  104. Codec ID/Info                            : UTF-8 Plain Text
  105. Duration                                 : 1 h 10 min
  106. Bit rate                                 : 76 b/s
  107. Count of elements                        : 1231
  108. Stream size                              : 39.7 KiB (0%)
  109. Title                                    : Danish
  110. Language                                 : Danish
  111. Default                                  : No
  112. Forced                                   : No

  113. Text #6
  114. ID                                       : 8
  115. Format                                   : UTF-8
  116. Codec ID                                 : S_TEXT/UTF8
  117. Codec ID/Info                            : UTF-8 Plain Text
  118. Duration                                 : 1 h 10 min
  119. Bit rate                                 : 78 b/s
  120. Count of elements                        : 1061
  121. Stream size                              : 40.8 KiB (0%)
  122. Title                                    : Dutch
  123. Language                                 : Dutch
  124. Default                                  : No
  125. Forced                                   : No

  126. Text #7
  127. ID                                       : 9
  128. Format                                   : UTF-8
  129. Codec ID                                 : S_TEXT/UTF8
  130. Codec ID/Info                            : UTF-8 Plain Text
  131. Duration                                 : 1 h 10 min
  132. Bit rate                                 : 83 b/s
  133. Count of elements                        : 1221
  134. Stream size                              : 43.2 KiB (0%)
  135. Title                                    : German
  136. Language                                 : German
  137. Default                                  : No
  138. Forced                                   : No

  139. Text #8
  140. ID                                       : 10
  141. Format                                   : UTF-8
  142. Codec ID                                 : S_TEXT/UTF8
  143. Codec ID/Info                            : UTF-8 Plain Text
  144. Duration                                 : 1 h 10 min
  145. Bit rate                                 : 137 b/s
  146. Count of elements                        : 1244
  147. Stream size                              : 71.5 KiB (0%)
  148. Title                                    : Greek
  149. Language                                 : Greek
  150. Default                                  : No
  151. Forced                                   : No

  152. Text #9
  153. ID                                       : 11
  154. Format                                   : UTF-8
  155. Codec ID                                 : S_TEXT/UTF8
  156. Codec ID/Info                            : UTF-8 Plain Text
  157. Duration                                 : 1 h 10 min
  158. Bit rate                                 : 131 b/s
  159. Count of elements                        : 1244
  160. Stream size                              : 68.0 KiB (0%)
  161. Title                                    : Hebrew
  162. Language                                 : Hebrew
  163. Default                                  : No
  164. Forced                                   : No

  165. Text #10
  166. ID                                       : 12
  167. Format                                   : UTF-8
  168. Codec ID                                 : S_TEXT/UTF8
  169. Codec ID/Info                            : UTF-8 Plain Text
  170. Duration                                 : 1 h 10 min
  171. Bit rate                                 : 90 b/s
  172. Count of elements                        : 1244
  173. Stream size                              : 47.0 KiB (0%)
  174. Title                                    : Italian
  175. Language                                 : Italian
  176. Default                                  : No
  177. Forced                                   : No

  178. Text #11
  179. ID                                       : 13
  180. Format                                   : UTF-8
  181. Codec ID                                 : S_TEXT/UTF8
  182. Codec ID/Info                            : UTF-8 Plain Text
  183. Duration                                 : 1 h 10 min
  184. Bit rate                                 : 74 b/s
  185. Count of elements                        : 1091
  186. Stream size                              : 38.8 KiB (0%)
  187. Title                                    : Japanese
  188. Language                                 : Japanese
  189. Default                                  : No
  190. Forced                                   : No

  191. Text #12
  192. ID                                       : 14
  193. Format                                   : UTF-8
  194. Codec ID                                 : S_TEXT/UTF8
  195. Codec ID/Info                            : UTF-8 Plain Text
  196. Duration                                 : 1 h 10 min
  197. Bit rate                                 : 100 b/s
  198. Count of elements                        : 1307
  199. Stream size                              : 52.0 KiB (0%)
  200. Title                                    : Korean
  201. Language                                 : Korean
  202. Default                                  : No
  203. Forced                                   : No

  204. Text #13
  205. ID                                       : 15
  206. Format                                   : UTF-8
  207. Codec ID                                 : S_TEXT/UTF8
  208. Codec ID/Info                            : UTF-8 Plain Text
  209. Duration                                 : 1 h 10 min
  210. Bit rate                                 : 77 b/s
  211. Count of elements                        : 1200
  212. Stream size                              : 40.5 KiB (0%)
  213. Title                                    : Norweigan
  214. Language                                 : Norwegian
  215. Default                                  : No
  216. Forced                                   : No

  217. Text #14
  218. ID                                       : 16
  219. Format                                   : UTF-8
  220. Codec ID                                 : S_TEXT/UTF8
  221. Codec ID/Info                            : UTF-8 Plain Text
  222. Duration                                 : 1 h 10 min
  223. Bit rate                                 : 83 b/s
  224. Count of elements                        : 1244
  225. Stream size                              : 43.5 KiB (0%)
  226. Title                                    : Polish
  227. Language                                 : Polish
  228. Default                                  : No
  229. Forced                                   : No

  230. Text #15
  231. ID                                       : 17
  232. Format                                   : UTF-8
  233. Codec ID                                 : S_TEXT/UTF8
  234. Codec ID/Info                            : UTF-8 Plain Text
  235. Duration                                 : 1 h 10 min
  236. Bit rate                                 : 80 b/s
  237. Count of elements                        : 1244
  238. Stream size                              : 42.0 KiB (0%)
  239. Title                                    : Portugese (Brazilian)
  240. Language                                 : Portuguese
  241. Default                                  : No
  242. Forced                                   : No

  243. Text #16
  244. ID                                       : 18
  245. Format                                   : UTF-8
  246. Codec ID                                 : S_TEXT/UTF8
  247. Codec ID/Info                            : UTF-8 Plain Text
  248. Duration                                 : 1 h 10 min
  249. Bit rate                                 : 83 b/s
  250. Count of elements                        : 1244
  251. Stream size                              : 43.6 KiB (0%)
  252. Title                                    : Portugese (European)
  253. Language                                 : Portuguese
  254. Default                                  : No
  255. Forced                                   : No

  256. Text #17
  257. ID                                       : 19
  258. Format                                   : UTF-8
  259. Codec ID                                 : S_TEXT/UTF8
  260. Codec ID/Info                            : UTF-8 Plain Text
  261. Duration                                 : 1 h 10 min
  262. Bit rate                                 : 95 b/s
  263. Count of elements                        : 1244
  264. Stream size                              : 49.8 KiB (0%)
  265. Title                                    : Romanian
  266. Language                                 : Romanian
  267. Default                                  : No
  268. Forced                                   : No

  269. Text #18
  270. ID                                       : 20
  271. Format                                   : UTF-8
  272. Codec ID                                 : S_TEXT/UTF8
  273. Codec ID/Info                            : UTF-8 Plain Text
  274. Duration                                 : 1 h 10 min
  275. Bit rate                                 : 80 b/s
  276. Count of elements                        : 1248
  277. Stream size                              : 41.9 KiB (0%)
  278. Title                                    : Spanish (European)
  279. Language                                 : Spanish
  280. Default                                  : No
  281. Forced                                   : No

  282. Text #19
  283. ID                                       : 21
  284. Format                                   : UTF-8
  285. Codec ID                                 : S_TEXT/UTF8
  286. Codec ID/Info                            : UTF-8 Plain Text
  287. Duration                                 : 1 h 10 min
  288. Bit rate                                 : 82 b/s
  289. Count of elements                        : 1218
  290. Stream size                              : 43.0 KiB (0%)
  291. Title                                    : Swedish
  292. Language                                 : Swedish
  293. Default                                  : No
  294. Forced                                   : No

  295. Text #20
  296. ID                                       : 22
  297. Format                                   : UTF-8
  298. Codec ID                                 : S_TEXT/UTF8
  299. Codec ID/Info                            : UTF-8 Plain Text
  300. Duration                                 : 1 h 10 min
  301. Bit rate                                 : 191 b/s
  302. Count of elements                        : 1244
  303. Stream size                              : 99.4 KiB (0%)
  304. Title                                    : Thai
  305. Language                                 : Thai
  306. Default                                  : No
  307. Forced                                   : No

  308. Text #21
  309. ID                                       : 23
  310. Format                                   : UTF-8
  311. Codec ID                                 : S_TEXT/UTF8
  312. Codec ID/Info                            : UTF-8 Plain Text
  313. Duration                                 : 1 h 10 min
  314. Bit rate                                 : 81 b/s
  315. Count of elements                        : 1244
  316. Stream size                              : 42.5 KiB (0%)
  317. Title                                    : Turkish
  318. Language                                 : Turkish
  319. Default                                  : No
  320. Forced                                   : No
复制代码

萨拉·西尔弗曼:一尘不染/莎拉·席尔蔓:一颗灰尘 Sarah.Silverman.A.Speck.of.Dust.2017.1080p.NF.WEBRip.DD5.1.x264-FGT 2.49GB-2.png 萨拉·西尔弗曼:一尘不染/莎拉·席尔蔓:一颗灰尘 Sarah.Silverman.A.Speck.of.Dust.2017.1080p.NF.WEBRip.DD5.1.x264-FGT 2.49GB-3.png 萨拉·西尔弗曼:一尘不染/莎拉·席尔蔓:一颗灰尘 Sarah.Silverman.A.Speck.of.Dust.2017.1080p.NF.WEBRip.DD5.1.x264-FGT 2.49GB-4.png 萨拉·西尔弗曼:一尘不染/莎拉·席尔蔓:一颗灰尘 Sarah.Silverman.A.Speck.of.Dust.2017.1080p.NF.WEBRip.DD5.1.x264-FGT 2.49GB-5.png 222609msha4zxga00jjtaw.png 222613kefgtl9l1gof4zez.png







VIP会员免费任意下载本站所有资源!---点击开通
回复

使用道具 举报

懒得打字嘛,点击右侧快捷回复 【右侧内容,后台自定义】
您需要登录后才可以回帖 登录 | 立即注册

本版积分规则

QQ|Archiver|手机版|小黑屋| 中国高清网 |网站地图

GMT+8, 2019-11-20 21:48 , Processed in 0.275899 second(s), 37 queries .

Powered by HDchina X3.4

Copyright 2017-2019©HDchina.All right reserved

返回顶部 联系我们