查看: 8|回复: 0

[纪录片] 坚强之岛 Strong.Island.2017.1080p.NF.WEBRip.DD5.1.x264-SiGMA 3.70GB

[复制链接]

 成长值: 3230

级别:资源管理组

注册时间
2017-10-20
最后登录
2019-11-21
听众
1
收听
0
主题
87390
蓝光币
63616 枚
贡献
11749 点
发表于 2019-11-10 22:25:03 | 显示全部楼层 |阅读模式
顽强之岛 Strong.Island.2017.1080p.NF.WEBRip.DD5.1.x264-SiGMA 3.70GB-1.png

译  名 顽强之岛
片  名 Strong Island
年  代 2017
产  地 美国
类  别 记载片
语  言 英语
上映日期 2017-01-15(圣丹斯电影节)
IMDb评分  6.4/10 from 2998 users
IMDb链接  https://www.imdb.com/title/tt5873150
豆瓣评分 5.8/10 from 185 users
豆瓣链接 https://movie.douban.com/subject/26929016/
片  长 107分钟
导  演 恩斯·福特 Yance Ford
编  剧 恩斯·福特 Yance Ford
主  演 恩斯·福特 Yance Ford
       Harvey Walker
       Ed Boyar


标  签 记载片 | 美国 | 2017 | Documentary | 种族 | 犯罪 | 美国电影 | 自力电影

简  介  

  《强岛》(Strong Island) 导演:扬斯·福特(Yance Ford) 入围2017年圣丹斯电影节记载片单元

获奖情况  

  第90届奥斯卡金像奖(2018)
  最好记载长片(提名) 恩斯·福特 / 乔斯琳·巴尼斯

  第67届柏林国际电影节(2017)
  泰迪熊奖 最好记载片(提名) 恩斯·福特

  第33届圣丹斯电影节(2017)
  评审团大奖 记载片(提名) 恩斯·福特
  评审团出格奖 记载片 恩斯·福特

  第27届哥谭自力电影奖(2017)
  最好记载片
  1. Video
  2. ID                                       : 1
  3. Format                                   : AVC
  4. Format/Info                              : Advanced Video Codec
  5. Format profile                           : High@L4
  6. Format settings                          : CABAC / 3 Ref Frames
  7. Format settings, CABAC                   : Yes
  8. Format settings, Reference frames        : 3 frames
  9. Codec ID                                 : V_MPEG4/ISO/AVC
  10. Duration                                 : 1 h 47 min
  11. Bit rate mode                            : Variable
  12. Bit rate                                 : 4 640 kb/s
  13. Maximum bit rate                         : 6 960 kb/s
  14. Width                                    : 1 920 pixels
  15. Height                                   : 1 080 pixels
  16. Display aspect ratio                     : 16:9
  17. Frame rate mode                          : Constant
  18. Frame rate                               : 23.976 (24000/1001) FPS
  19. Color space                              : YUV
  20. Chroma subsampling                       : 4:2:0
  21. Bit depth                                : 8 bits
  22. Scan type                                : Progressive
  23. Bits/(Pixel*Frame)                       : 0.093
  24. Stream size                              : 3.41 GiB (92%)
  25. Writing library                          : x264 core 148
  26. Encoding settings                        : cabac=1 / ref=3 / deblock=1:0:0 / analyse=0x1:0x111 / me=umh / subme=10 / psy=1 / psy_rd=1.00:0.00 / mixed_ref=1 / me_range=24 / chroma_me=1 / trellis=2 / 8x8dct=0 / cqm=0 / deadzone=21,11 / fast_pskip=1 / chroma_qp_offset=-2 / threads=8 / lookahead_threads=1 / sliced_threads=0 / nr=0 / decimate=1 / interlaced=0 / bluray_compat=0 / stitchable=1 / constrained_intra=0 / bframes=2 / b_pyramid=0 / b_adapt=2 / b_bias=0 / direct=3 / weightb=1 / open_gop=0 / weightp=2 / keyint=48 / keyint_min=25 / scenecut=0 / intra_refresh=0 / rc_lookahead=48 / rc=2pass / mbtree=1 / bitrate=4640 / ratetol=1.0 / qcomp=0.50 / qpmin=6 / qpmax=51 / qpstep=4 / cplxblur=20.0 / qblur=0.5 / vbv_maxrate=6960 / vbv_bufsize=9280 / nal_hrd=vbr / filler=0 / ip_ratio=1.40 / aq=1:1.00
  27. Default                                  : Yes
  28. Forced                                   : No

  29. Audio
  30. ID                                       : 2
  31. Format                                   : AC-3
  32. Format/Info                              : Audio Coding 3
  33. Commercial name                          : Dolby Digital
  34. Codec ID                                 : A_AC3
  35. Duration                                 : 1 h 47 min
  36. Bit rate mode                            : Constant
  37. Bit rate                                 : 384 kb/s
  38. Channel(s)                               : 6 channels
  39. Channel layout                           : L R C LFE Ls Rs
  40. Sampling rate                            : 48.0 kHz
  41. Frame rate                               : 31.250 FPS (1536 SPF)
  42. Bit depth                                : 16 bits
  43. Compression mode                         : Lossy
  44. Stream size                              : 296 MiB (8%)
  45. Language                                 : English
  46. Service kind                             : Complete Main
  47. Default                                  : Yes
  48. Forced                                   : No

  49. Text #1
  50. ID                                       : 3
  51. Format                                   : UTF-8
  52. Codec ID                                 : S_TEXT/UTF8
  53. Codec ID/Info                            : UTF-8 Plain Text
  54. Duration                                 : 1 h 47 min
  55. Bit rate                                 : 97 b/s
  56. Count of elements                        : 1490
  57. Stream size                              : 76.6 KiB (0%)
  58. Language                                 : Arabic
  59. Default                                  : No
  60. Forced                                   : No

  61. Text #2
  62. ID                                       : 4
  63. Format                                   : UTF-8
  64. Codec ID                                 : S_TEXT/UTF8
  65. Codec ID/Info                            : UTF-8 Plain Text
  66. Duration                                 : 1 h 46 min
  67. Bit rate                                 : 147 b/s
  68. Count of elements                        : 1504
  69. Stream size                              : 116 KiB (0%)
  70. Language                                 : Bulgarian
  71. Default                                  : No
  72. Forced                                   : No

  73. Text #3
  74. ID                                       : 5
  75. Format                                   : UTF-8
  76. Codec ID                                 : S_TEXT/UTF8
  77. Codec ID/Info                            : UTF-8 Plain Text
  78. Duration                                 : 1 h 47 min
  79. Bit rate                                 : 72 b/s
  80. Count of elements                        : 1378
  81. Stream size                              : 57.4 KiB (0%)
  82. Language                                 : Danish
  83. Default                                  : No
  84. Forced                                   : No

  85. Text #4
  86. ID                                       : 6
  87. Format                                   : UTF-8
  88. Codec ID                                 : S_TEXT/UTF8
  89. Codec ID/Info                            : UTF-8 Plain Text
  90. Duration                                 : 1 h 45 min
  91. Bit rate                                 : 81 b/s
  92. Count of elements                        : 1393
  93. Stream size                              : 62.5 KiB (0%)
  94. Language                                 : German
  95. Default                                  : No
  96. Forced                                   : No

  97. Text #5
  98. ID                                       : 7
  99. Format                                   : UTF-8
  100. Codec ID                                 : S_TEXT/UTF8
  101. Codec ID/Info                            : UTF-8 Plain Text
  102. Duration                                 : 1 h 47 min
  103. Bit rate                                 : 134 b/s
  104. Count of elements                        : 1527
  105. Stream size                              : 106 KiB (0%)
  106. Language                                 : Greek
  107. Default                                  : No
  108. Forced                                   : No

  109. Text #6
  110. ID                                       : 8
  111. Format                                   : UTF-8
  112. Codec ID                                 : S_TEXT/UTF8
  113. Codec ID/Info                            : UTF-8 Plain Text
  114. Duration                                 : 1 h 47 min
  115. Bit rate                                 : 83 b/s
  116. Count of elements                        : 1570
  117. Stream size                              : 65.7 KiB (0%)
  118. Title                                    : SDH
  119. Language                                 : English
  120. Default                                  : No
  121. Forced                                   : No

  122. Text #7
  123. ID                                       : 9
  124. Format                                   : UTF-8
  125. Codec ID                                 : S_TEXT/UTF8
  126. Codec ID/Info                            : UTF-8 Plain Text
  127. Duration                                 : 1 h 47 min
  128. Bit rate                                 : 72 b/s
  129. Count of elements                        : 1483
  130. Stream size                              : 57.4 KiB (0%)
  131. Language                                 : Spanish
  132. Default                                  : No
  133. Forced                                   : No

  134. Text #8
  135. ID                                       : 10
  136. Format                                   : UTF-8
  137. Codec ID                                 : S_TEXT/UTF8
  138. Codec ID/Info                            : UTF-8 Plain Text
  139. Duration                                 : 1 h 47 min
  140. Bit rate                                 : 75 b/s
  141. Count of elements                        : 1484
  142. Stream size                              : 59.7 KiB (0%)
  143. Language                                 : Spanish
  144. Default                                  : No
  145. Forced                                   : No

  146. Text #9
  147. ID                                       : 11
  148. Format                                   : UTF-8
  149. Codec ID                                 : S_TEXT/UTF8
  150. Codec ID/Info                            : UTF-8 Plain Text
  151. Duration                                 : 1 h 47 min
  152. Bit rate                                 : 70 b/s
  153. Count of elements                        : 1378
  154. Stream size                              : 55.8 KiB (0%)
  155. Language                                 : Finnish
  156. Default                                  : No
  157. Forced                                   : No

  158. Text #10
  159. ID                                       : 12
  160. Format                                   : UTF-8
  161. Codec ID                                 : S_TEXT/UTF8
  162. Codec ID/Info                            : UTF-8 Plain Text
  163. Duration                                 : 1 h 47 min
  164. Bit rate                                 : 74 b/s
  165. Count of elements                        : 1463
  166. Stream size                              : 58.4 KiB (0%)
  167. Language                                 : French
  168. Default                                  : No
  169. Forced                                   : No

  170. Text #11
  171. ID                                       : 13
  172. Format                                   : UTF-8
  173. Codec ID                                 : S_TEXT/UTF8
  174. Codec ID/Info                            : UTF-8 Plain Text
  175. Duration                                 : 1 h 45 min
  176. Bit rate                                 : 94 b/s
  177. Count of elements                        : 1485
  178. Stream size                              : 72.7 KiB (0%)
  179. Language                                 : Hebrew
  180. Default                                  : No
  181. Forced                                   : No

  182. Text #12
  183. ID                                       : 14
  184. Format                                   : UTF-8
  185. Codec ID                                 : S_TEXT/UTF8
  186. Codec ID/Info                            : UTF-8 Plain Text
  187. Duration                                 : 1 h 47 min
  188. Bit rate                                 : 78 b/s
  189. Count of elements                        : 1475
  190. Stream size                              : 61.7 KiB (0%)
  191. Language                                 : Italian
  192. Default                                  : No
  193. Forced                                   : No

  194. Text #13
  195. ID                                       : 15
  196. Format                                   : UTF-8
  197. Codec ID                                 : S_TEXT/UTF8
  198. Codec ID/Info                            : UTF-8 Plain Text
  199. Duration                                 : 1 h 47 min
  200. Bit rate                                 : 65 b/s
  201. Count of elements                        : 1291
  202. Stream size                              : 51.4 KiB (0%)
  203. Language                                 : Japanese
  204. Default                                  : No
  205. Forced                                   : No

  206. Text #14
  207. ID                                       : 16
  208. Format                                   : UTF-8
  209. Codec ID                                 : S_TEXT/UTF8
  210. Codec ID/Info                            : UTF-8 Plain Text
  211. Duration                                 : 1 h 47 min
  212. Bit rate                                 : 81 b/s
  213. Count of elements                        : 1486
  214. Stream size                              : 64.0 KiB (0%)
  215. Language                                 : Korean
  216. Default                                  : No
  217. Forced                                   : No

  218. Text #15
  219. ID                                       : 17
  220. Format                                   : UTF-8
  221. Codec ID                                 : S_TEXT/UTF8
  222. Codec ID/Info                            : UTF-8 Plain Text
  223. Duration                                 : 1 h 47 min
  224. Bit rate                                 : 70 b/s
  225. Count of elements                        : 1378
  226. Stream size                              : 55.5 KiB (0%)
  227. Language                                 : Norwegian Bokmal
  228. Default                                  : No
  229. Forced                                   : No

  230. Text #16
  231. ID                                       : 18
  232. Format                                   : UTF-8
  233. Codec ID                                 : S_TEXT/UTF8
  234. Codec ID/Info                            : UTF-8 Plain Text
  235. Duration                                 : 1 h 47 min
  236. Bit rate                                 : 68 b/s
  237. Count of elements                        : 1469
  238. Stream size                              : 53.9 KiB (0%)
  239. Language                                 : Dutch
  240. Default                                  : No
  241. Forced                                   : No

  242. Text #17
  243. ID                                       : 19
  244. Format                                   : UTF-8
  245. Codec ID                                 : S_TEXT/UTF8
  246. Codec ID/Info                            : UTF-8 Plain Text
  247. Duration                                 : 1 h 47 min
  248. Bit rate                                 : 65 b/s
  249. Count of elements                        : 1470
  250. Stream size                              : 51.9 KiB (0%)
  251. Language                                 : Polish
  252. Default                                  : No
  253. Forced                                   : No

  254. Text #18
  255. ID                                       : 20
  256. Format                                   : UTF-8
  257. Codec ID                                 : S_TEXT/UTF8
  258. Codec ID/Info                            : UTF-8 Plain Text
  259. Duration                                 : 1 h 47 min
  260. Bit rate                                 : 66 b/s
  261. Count of elements                        : 1482
  262. Stream size                              : 51.9 KiB (0%)
  263. Language                                 : Portuguese
  264. Default                                  : No
  265. Forced                                   : No

  266. Text #19
  267. ID                                       : 21
  268. Format                                   : UTF-8
  269. Codec ID                                 : S_TEXT/UTF8
  270. Codec ID/Info                            : UTF-8 Plain Text
  271. Duration                                 : 1 h 45 min
  272. Bit rate                                 : 70 b/s
  273. Count of elements                        : 1483
  274. Stream size                              : 54.1 KiB (0%)
  275. Title                                    : Brazilian
  276. Language                                 : Portuguese
  277. Default                                  : No
  278. Forced                                   : No

  279. Text #20
  280. ID                                       : 22
  281. Format                                   : UTF-8
  282. Codec ID                                 : S_TEXT/UTF8
  283. Codec ID/Info                            : UTF-8 Plain Text
  284. Duration                                 : 1 h 47 min
  285. Bit rate                                 : 76 b/s
  286. Count of elements                        : 1529
  287. Stream size                              : 60.2 KiB (0%)
  288. Language                                 : Romanian
  289. Default                                  : No
  290. Forced                                   : No

  291. Text #21
  292. ID                                       : 23
  293. Format                                   : UTF-8
  294. Codec ID                                 : S_TEXT/UTF8
  295. Codec ID/Info                            : UTF-8 Plain Text
  296. Duration                                 : 1 h 47 min
  297. Bit rate                                 : 73 b/s
  298. Count of elements                        : 1377
  299. Stream size                              : 57.4 KiB (0%)
  300. Language                                 : Swedish
  301. Default                                  : No
  302. Forced                                   : No

  303. Text #22
  304. ID                                       : 24
  305. Format                                   : UTF-8
  306. Codec ID                                 : S_TEXT/UTF8
  307. Codec ID/Info                            : UTF-8 Plain Text
  308. Duration                                 : 1 h 47 min
  309. Bit rate                                 : 166 b/s
  310. Count of elements                        : 1487
  311. Stream size                              : 131 KiB (0%)
  312. Language                                 : Thai
  313. Default                                  : No
  314. Forced                                   : No

  315. Text #23
  316. ID                                       : 25
  317. Format                                   : UTF-8
  318. Codec ID                                 : S_TEXT/UTF8
  319. Codec ID/Info                            : UTF-8 Plain Text
  320. Duration                                 : 1 h 47 min
  321. Bit rate                                 : 76 b/s
  322. Count of elements                        : 1485
  323. Stream size                              : 60.3 KiB (0%)
  324. Language                                 : Turkish
  325. Default                                  : No
  326. Forced                                   : No

  327. Text #24
  328. ID                                       : 26
  329. Format                                   : UTF-8
  330. Codec ID                                 : S_TEXT/UTF8
  331. Codec ID/Info                            : UTF-8 Plain Text
  332. Duration                                 : 1 h 47 min
  333. Bit rate                                 : 60 b/s
  334. Count of elements                        : 1487
  335. Stream size                              : 47.5 KiB (0%)
  336. Title                                    : Simplified
  337. Language                                 : Chinese
  338. Default                                  : No
  339. Forced                                   : No

  340. Text #25
  341. ID                                       : 27
  342. Format                                   : UTF-8
  343. Codec ID                                 : S_TEXT/UTF8
  344. Codec ID/Info                            : UTF-8 Plain Text
  345. Duration                                 : 1 h 47 min
  346. Bit rate                                 : 60 b/s
  347. Count of elements                        : 1487
  348. Stream size                              : 47.9 KiB (0%)
  349. Title                                    : Traditional
  350. Language                                 : Chinese
  351. Default                                  : No
  352. Forced                                   : No
复制代码

顽强之岛 Strong.Island.2017.1080p.NF.WEBRip.DD5.1.x264-SiGMA 3.70GB-2.png 顽强之岛 Strong.Island.2017.1080p.NF.WEBRip.DD5.1.x264-SiGMA 3.70GB-3.png 顽强之岛 Strong.Island.2017.1080p.NF.WEBRip.DD5.1.x264-SiGMA 3.70GB-4.png







VIP会员免费任意下载本站所有资源!---点击开通
回复

使用道具 举报

懒得打字嘛,点击右侧快捷回复 【右侧内容,后台自定义】
您需要登录后才可以回帖 登录 | 立即注册

本版积分规则

QQ|Archiver|手机版|小黑屋| 中国高清网 |网站地图

GMT+8, 2019-11-22 05:44 , Processed in 0.295568 second(s), 37 queries .

Powered by HDchina X3.4

Copyright 2017-2019©HDchina.All right reserved

返回顶部 联系我们