查看: 6|回复: 0

[喜剧片] 辣妹抢银行/啦啦俏娇娃 Sugar.and.Spice.2001.1080p.AMZN.WEBRip.DDP2.0.x264-monkee 6.09GB

[复制链接]

 成长值: 3230

级别:资源管理组

注册时间
2017-10-20
最后登录
2019-11-21
听众
1
收听
0
主题
87390
蓝光币
63614 枚
贡献
11749 点
发表于 2019-11-10 22:23:07 | 显示全部楼层 |阅读模式
辣妹抢银行/啦啦俏娇娃 Sugar.and.Spice.2001.1080p.AMZN.WEBRip.DDP2.0.x264-monkee 6.09GB-1.png

译  名 辣妹抢银行 / 啦啦俏娇娃 / 甜心辣妹 / 辣妹与甜心 / 悲欢离合
片  名 Sugar & Spice
年  代 2001
产  地 美国
类  别 笑剧 / 犯罪
语  言 英语
上映日期 2001-01-26(美国)
IMDb评分  5.7/10 from 13001 users
IMDb链接  https://www.imdb.com/title/tt0186589
豆瓣评分 6.2/10 from 378 users
豆瓣链接 https://movie.douban.com/subject/1294524/
片  长 81 分钟
导  演 弗朗辛·麦克杜格尔 Francine McDougall
编  剧 曼迪·尼尔森 Mandy Nelson
主  演 玛丽·谢尔顿 Marley Shelton
       詹姆斯·麦斯登 James Marsden
       米娜·苏瓦丽 Mena Suvari
       玛拉·索科洛芙 Marla Sokoloff
       梅利莎·乔治 Melissa George
       雷切尔·布兰卡德 Rachel Blanchard
       亚历山德拉·霍尔登 Alexandra Holden
       萨拉·马什 Sara Marsh
       肖恩·杨 Sean Young
       W·厄尔·布朗 W. Earl Brown


标  签 笑剧 | 美国 | 青春 | 美国电影 | 2001 | 犯罪 | 欧美电影 | JamesMarsden

简  介  

  林肯高中是一所云集了各类新新人类的黉舍,也许在这个飞速成长的21世纪,刻苦进修早已不是重要使命,时髦男女们更热衷于享用稍纵即逝的青春生活。
  戴安娜·维斯顿(玛丽·谢尔顿 Marley Shelton 饰)、汉娜·沃德(Rachel Blanchard 饰)、肯萨斯·希尔(Mena Suvari 饰)、露茜·维特曼(Sara Marsh 饰)和克洛·米勒(Melissa George 饰)是林肯高中的啦啦队员,同时也是引领黉舍时髦的风向标。她们性情各异,可是团结一心,是啦啦队不成或缺的中坚气力。但是,某天戴安娜和球队的四分卫杰克·巴克利特(James Marsden 饰)擦枪走火,搞大了肚子。为了帮助被黉舍和家长赶进来的好友,其他四个姐妹轮流照顾戴安娜,甚至还打起抢银行的主张……
  1. Video
  2. ID                                       : 1
  3. Format                                   : AVC
  4. Format/Info                              : Advanced Video Codec
  5. Format profile                           : High@L4
  6. Format settings                          : CABAC / 4 Ref Frames
  7. Format settings, CABAC                   : Yes
  8. Format settings, Reference frames        : 4 frames
  9. Codec ID                                 : V_MPEG4/ISO/AVC
  10. Duration                                 : 1 h 20 min
  11. Bit rate mode                            : Variable
  12. Bit rate                                 : 10.5 Mb/s
  13. Maximum bit rate                         : 15.0 Mb/s
  14. Width                                    : 1 920 pixels
  15. Height                                   : 816 pixels
  16. Display aspect ratio                     : 2.35:1
  17. Frame rate mode                          : Constant
  18. Frame rate                               : 23.976 (24000/1001) FPS
  19. Color space                              : YUV
  20. Chroma subsampling                       : 4:2:0
  21. Bit depth                                : 8 bits
  22. Scan type                                : Progressive
  23. Bits/(Pixel*Frame)                       : 0.281
  24. Stream size                              : 5.96 GiB (98%)
  25. Writing library                          : x264 core 148 r2623 d5b2374
  26. Encoding settings                        : cabac=1 / ref=4 / deblock=1:-1:-1 / analyse=0x3:0x133 / me=umh / subme=9 / psy=1 / psy_rd=1.00:0.15 / mixed_ref=1 / me_range=24 / chroma_me=1 / trellis=2 / 8x8dct=1 / cqm=0 / deadzone=21,11 / fast_pskip=1 / chroma_qp_offset=-3 / threads=25 / lookahead_threads=4 / sliced_threads=0 / nr=150 / decimate=1 / interlaced=0 / bluray_compat=0 / constrained_intra=0 / bframes=8 / b_pyramid=2 / b_adapt=2 / b_bias=0 / direct=3 / weightb=1 / open_gop=0 / weightp=2 / keyint=120 / keyint_min=61 / scenecut=0 / intra_refresh=0 / rc_lookahead=120 / rc=crf / mbtree=1 / crf=18.0 / qcomp=0.60 / qpmin=0 / qpmax=69 / qpstep=4 / vbv_maxrate=15000 / vbv_bufsize=31250 / crf_max=0.0 / nal_hrd=vbr / filler=0 / ip_ratio=1.40 / aq=3:1.00
  27. Default                                  : Yes
  28. Forced                                   : No
  29. Color range                              : Limited
  30. Color primaries                          : BT.709
  31. Transfer characteristics                 : BT.709
  32. Matrix coefficients                      : BT.709

  33. Audio
  34. ID                                       : 2
  35. Format                                   : E-AC-3
  36. Format/Info                              : Enhanced AC-3
  37. Commercial name                          : Dolby Digital Plus
  38. Codec ID                                 : A_EAC3
  39. Duration                                 : 1 h 20 min
  40. Bit rate mode                            : Constant
  41. Bit rate                                 : 224 kb/s
  42. Channel(s)                               : 2 channels
  43. Channel layout                           : L R
  44. Sampling rate                            : 48.0 kHz
  45. Frame rate                               : 31.250 FPS (1536 SPF)
  46. Compression mode                         : Lossy
  47. Stream size                              : 130 MiB (2%)
  48. Language                                 : English
  49. Service kind                             : Complete Main
  50. Default                                  : Yes
  51. Forced                                   : No

  52. Text
  53. ID                                       : 3
  54. Format                                   : UTF-8
  55. Codec ID                                 : S_TEXT/UTF8
  56. Codec ID/Info                            : UTF-8 Plain Text
  57. Duration                                 : 1 h 18 min
  58. Bit rate                                 : 78 b/s
  59. Count of elements                        : 1622
  60. Stream size                              : 45.4 KiB (0%)
  61. Language                                 : English
  62. Default                                  : No
  63. Forced                                   : No
复制代码

辣妹抢银行/啦啦俏娇娃 Sugar.and.Spice.2001.1080p.AMZN.WEBRip.DDP2.0.x264-monkee 6.09GB-2.png 辣妹抢银行/啦啦俏娇娃 Sugar.and.Spice.2001.1080p.AMZN.WEBRip.DDP2.0.x264-monkee 6.09GB-3.png 222219ejqqbo3wiw3pubqw.png 辣妹抢银行/啦啦俏娇娃 Sugar.and.Spice.2001.1080p.AMZN.WEBRip.DDP2.0.x264-monkee 6.09GB-5.png 辣妹抢银行/啦啦俏娇娃 Sugar.and.Spice.2001.1080p.AMZN.WEBRip.DDP2.0.x264-monkee 6.09GB-6.png 辣妹抢银行/啦啦俏娇娃 Sugar.and.Spice.2001.1080p.AMZN.WEBRip.DDP2.0.x264-monkee 6.09GB-7.png







VIP会员免费任意下载本站所有资源!---点击开通
回复

使用道具 举报

懒得打字嘛,点击右侧快捷回复 【右侧内容,后台自定义】
您需要登录后才可以回帖 登录 | 立即注册

本版积分规则

QQ|Archiver|手机版|小黑屋| 中国高清网 |网站地图

GMT+8, 2019-11-22 02:15 , Processed in 0.252083 second(s), 37 queries .

Powered by HDchina X3.4

Copyright 2017-2019©HDchina.All right reserved

返回顶部 联系我们