查看: 6|回复: 0

[剧情片] 完美独裁 The.Perfect.Dictatorship.2014.DUBBED.1080p.NF.WEBRip.DD5.1.x264-TOMMY 3.70GB

[复制链接]

 成长值: 3230

级别:资源管理组

注册时间
2017-10-20
最后登录
2019-11-21
听众
1
收听
0
主题
87390
蓝光币
63614 枚
贡献
11749 点
发表于 2019-11-10 22:18:25 | 显示全部楼层 |阅读模式
完善独裁 The.Perfect.Dictatorship.2014.DUBBED.1080p.NF.WEBRip.DD5.1.x264-TOMMY 3.70GB-1.png

译  名 完善独裁 / The Perfect Dictatorship
片  名 La dictadura perfecta
年  代 2014
产  地 墨西哥
类  别 剧情 / 笑剧
语  言 西班牙语
上映日期 2014-10-16(墨西哥)
IMDb评分  7.2/10 from 4081 users
IMDb链接  https://www.imdb.com/title/tt3970854
豆瓣评分 0/10 from 0 users
豆瓣链接 https://movie.douban.com/subject/25964810/
片  长 143分钟
导  演 Luis Estrada
编  剧 Luis Estrada
主  演 Damián Alcázar
       Alfonso Herrera
       华金·科西奥 Joaquín Cosio
       Osvaldo Benavides
       Silvia Navarro
       Saúl Lisazo
       Tony Dalton


标  签 墨西哥 | 墨西哥电影 | 政治 | 嘲讽 | 2014 | 路易斯·埃斯特拉达 | 西班牙 | 男演员_墨西哥_Cosio_Joaquín

简  介  

  TV MX, the most powerful Mexican Television Corporation, discloses a scandalous story involving Governor Carmelo Vargas in serious crimes and illicit business. Governor Vargas worried about his political future, decides to clean his image and negotiates a billionaire secret agreement with the owners of the TV Corporation. Carlos Rojo, an ambitious young news producer, and Ricardo Diaz, TV network star reporter, are responsible for making a dirty campaign to change the image the public has of the corrupt Governor and make him, at any cost, a political star and a great presidential candidate. Mexican Television believes that democracy is a farce and has already placed one President... Will they do it again?
  1. Video
  2. ID                                       : 1
  3. Format                                   : AVC
  4. Format/Info                              : Advanced Video Codec
  5. Format profile                           : High@L4
  6. Format settings                          : CABAC / 3 Ref Frames
  7. Format settings, CABAC                   : Yes
  8. Format settings, Reference frames        : 3 frames
  9. Codec ID                                 : V_MPEG4/ISO/AVC
  10. Duration                                 : 2 h 23 min
  11. Bit rate mode                            : Variable
  12. Bit rate                                 : 3 320 kb/s
  13. Maximum bit rate                         : 4 980 kb/s
  14. Width                                    : 1 920 pixels
  15. Height                                   : 1 080 pixels
  16. Display aspect ratio                     : 16:9
  17. Frame rate mode                          : Constant
  18. Frame rate                               : 23.976 (24000/1001) FPS
  19. Color space                              : YUV
  20. Chroma subsampling                       : 4:2:0
  21. Bit depth                                : 8 bits
  22. Scan type                                : Progressive
  23. Bits/(Pixel*Frame)                       : 0.067
  24. Stream size                              : 3.31 GiB (90%)
  25. Writing library                          : x264 core 118
  26. Encoding settings                        : cabac=1 / ref=3 / deblock=1:0:0 / analyse=0x1:0x111 / me=umh / subme=10 / psy=1 / psy_rd=1.00:0.00 / mixed_ref=1 / me_range=24 / chroma_me=1 / trellis=2 / 8x8dct=0 / cqm=0 / deadzone=21,11 / fast_pskip=1 / chroma_qp_offset=-2 / threads=6 / sliced_threads=0 / nr=0 / decimate=1 / interlaced=0 / bluray_compat=0 / constrained_intra=0 / bframes=2 / b_pyramid=0 / b_adapt=2 / b_bias=0 / direct=3 / weightb=1 / open_gop=0 / weightp=2 / keyint=48 / keyint_min=25 / scenecut=0 / intra_refresh=0 / rc_lookahead=0 / rc=2pass / mbtree=1 / bitrate=3320 / ratetol=1.0 / qcomp=0.50 / qpmin=6 / qpmax=51 / qpstep=4 / cplxblur=20.0 / qblur=0.5 / vbv_maxrate=4980 / vbv_bufsize=6640 / nal_hrd=vbr / ip_ratio=1.40 / aq=1:1.00
  27. Default                                  : Yes
  28. Forced                                   : No

  29. Audio
  30. ID                                       : 2
  31. Format                                   : AC-3
  32. Format/Info                              : Audio Coding 3
  33. Commercial name                          : Dolby Digital
  34. Codec ID                                 : A_AC3
  35. Duration                                 : 2 h 23 min
  36. Bit rate mode                            : Constant
  37. Bit rate                                 : 384 kb/s
  38. Channel(s)                               : 6 channels
  39. Channel layout                           : L R C LFE Ls Rs
  40. Sampling rate                            : 48.0 kHz
  41. Frame rate                               : 31.250 FPS (1536 SPF)
  42. Bit depth                                : 16 bits
  43. Compression mode                         : Lossy
  44. Stream size                              : 393 MiB (10%)
  45. Language                                 : English
  46. Service kind                             : Complete Main
  47. Default                                  : Yes
  48. Forced                                   : No

  49. Text #1
  50. ID                                       : 3
  51. Format                                   : UTF-8
  52. Codec ID                                 : S_TEXT/UTF8
  53. Codec ID/Info                            : UTF-8 Plain Text
  54. Duration                                 : 2 h 7 min
  55. Bit rate                                 : 5 b/s
  56. Count of elements                        : 107
  57. Stream size                              : 5.00 KiB (0%)
  58. Title                                    : Forced
  59. Language                                 : English
  60. Default                                  : Yes
  61. Forced                                   : Yes

  62. Text #2
  63. ID                                       : 4
  64. Format                                   : UTF-8
  65. Codec ID                                 : S_TEXT/UTF8
  66. Codec ID/Info                            : UTF-8 Plain Text
  67. Duration                                 : 2 h 17 min
  68. Bit rate                                 : 90 b/s
  69. Count of elements                        : 2472
  70. Stream size                              : 91.4 KiB (0%)
  71. Title                                    : English
  72. Language                                 : English
  73. Default                                  : No
  74. Forced                                   : No

  75. Text #3
  76. ID                                       : 5
  77. Format                                   : UTF-8
  78. Codec ID                                 : S_TEXT/UTF8
  79. Codec ID/Info                            : UTF-8 Plain Text
  80. Duration                                 : 2 h 22 min
  81. Bit rate                                 : 1 b/s
  82. Count of elements                        : 42
  83. Stream size                              : 1.45 KiB (0%)
  84. Title                                    : Spanish
  85. Language                                 : Spanish
  86. Default                                  : No
  87. Forced                                   : No

  88. Text #4
  89. ID                                       : 6
  90. Format                                   : UTF-8
  91. Codec ID                                 : S_TEXT/UTF8
  92. Codec ID/Info                            : UTF-8 Plain Text
  93. Duration                                 : 2 h 17 min
  94. Bit rate                                 : 100 b/s
  95. Count of elements                        : 2828
  96. Stream size                              : 102 KiB (0%)
  97. Title                                    : Spanish
  98. Language                                 : Spanish
  99. Default                                  : No
  100. Forced                                   : No

  101. Text #5
  102. ID                                       : 7
  103. Format                                   : UTF-8
  104. Codec ID                                 : S_TEXT/UTF8
  105. Codec ID/Info                            : UTF-8 Plain Text
  106. Duration                                 : 2 h 22 min
  107. Bit rate                                 : 75 b/s
  108. Count of elements                        : 2311
  109. Stream size                              : 78.8 KiB (0%)
  110. Title                                    : Dutch
  111. Language                                 : Dutch
  112. Default                                  : No
  113. Forced                                   : No

  114. Text #6
  115. ID                                       : 8
  116. Format                                   : UTF-8
  117. Codec ID                                 : S_TEXT/UTF8
  118. Codec ID/Info                            : UTF-8 Plain Text
  119. Duration                                 : 2 h 22 min
  120. Bit rate                                 : 70 b/s
  121. Count of elements                        : 2313
  122. Stream size                              : 73.2 KiB (0%)
  123. Title                                    : Norwegian
  124. Language                                 : Norwegian
  125. Default                                  : No
  126. Forced                                   : No

  127. Text #7
  128. ID                                       : 9
  129. Format                                   : UTF-8
  130. Codec ID                                 : S_TEXT/UTF8
  131. Codec ID/Info                            : UTF-8 Plain Text
  132. Duration                                 : 2 h 22 min
  133. Bit rate                                 : 74 b/s
  134. Count of elements                        : 2162
  135. Stream size                              : 77.9 KiB (0%)
  136. Title                                    : Danish
  137. Language                                 : Danish
  138. Default                                  : No
  139. Forced                                   : No

  140. Text #8
  141. ID                                       : 10
  142. Format                                   : UTF-8
  143. Codec ID                                 : S_TEXT/UTF8
  144. Codec ID/Info                            : UTF-8 Plain Text
  145. Duration                                 : 2 h 22 min
  146. Bit rate                                 : 72 b/s
  147. Count of elements                        : 2095
  148. Stream size                              : 75.3 KiB (0%)
  149. Title                                    : Portuguese
  150. Language                                 : Portuguese
  151. Default                                  : No
  152. Forced                                   : No

  153. Text #9
  154. ID                                       : 11
  155. Format                                   : UTF-8
  156. Codec ID                                 : S_TEXT/UTF8
  157. Codec ID/Info                            : UTF-8 Plain Text
  158. Duration                                 : 2 h 17 min
  159. Bit rate                                 : 86 b/s
  160. Count of elements                        : 2450
  161. Stream size                              : 87.3 KiB (0%)
  162. Title                                    : Brazilian Portuguese
  163. Language                                 : Portuguese
  164. Default                                  : No
  165. Forced                                   : No

  166. Text #10
  167. ID                                       : 12
  168. Format                                   : UTF-8
  169. Codec ID                                 : S_TEXT/UTF8
  170. Codec ID/Info                            : UTF-8 Plain Text
  171. Duration                                 : 2 h 22 min
  172. Bit rate                                 : 74 b/s
  173. Count of elements                        : 2357
  174. Stream size                              : 78.2 KiB (0%)
  175. Title                                    : Polish
  176. Language                                 : Polish
  177. Default                                  : No
  178. Forced                                   : No

  179. Text #11
  180. ID                                       : 13
  181. Format                                   : UTF-8
  182. Codec ID                                 : S_TEXT/UTF8
  183. Codec ID/Info                            : UTF-8 Plain Text
  184. Duration                                 : 2 h 22 min
  185. Bit rate                                 : 131 b/s
  186. Count of elements                        : 2256
  187. Stream size                              : 137 KiB (0%)
  188. Title                                    : Greek
  189. Default                                  : No
  190. Forced                                   : No

  191. Text #12
  192. ID                                       : 14
  193. Format                                   : UTF-8
  194. Codec ID                                 : S_TEXT/UTF8
  195. Codec ID/Info                            : UTF-8 Plain Text
  196. Duration                                 : 2 h 22 min
  197. Bit rate                                 : 80 b/s
  198. Count of elements                        : 2337
  199. Stream size                              : 83.6 KiB (0%)
  200. Title                                    : German
  201. Language                                 : German
  202. Default                                  : No
  203. Forced                                   : No

  204. Text #13
  205. ID                                       : 15
  206. Format                                   : UTF-8
  207. Codec ID                                 : S_TEXT/UTF8
  208. Codec ID/Info                            : UTF-8 Plain Text
  209. Duration                                 : 2 h 22 min
  210. Bit rate                                 : 69 b/s
  211. Count of elements                        : 2027
  212. Stream size                              : 72.9 KiB (0%)
  213. Title                                    : Swedish
  214. Language                                 : Swedish
  215. Default                                  : No
  216. Forced                                   : No

  217. Text #14
  218. ID                                       : 16
  219. Format                                   : UTF-8
  220. Codec ID                                 : S_TEXT/UTF8
  221. Codec ID/Info                            : UTF-8 Plain Text
  222. Duration                                 : 2 h 17 min
  223. Bit rate                                 : 75 b/s
  224. Count of elements                        : 2221
  225. Stream size                              : 76.0 KiB (0%)
  226. Title                                    : Italian
  227. Language                                 : Italian
  228. Default                                  : No
  229. Forced                                   : No

  230. Text #15
  231. ID                                       : 17
  232. Format                                   : UTF-8
  233. Codec ID                                 : S_TEXT/UTF8
  234. Codec ID/Info                            : UTF-8 Plain Text
  235. Duration                                 : 2 h 22 min
  236. Bit rate                                 : 75 b/s
  237. Count of elements                        : 2198
  238. Stream size                              : 78.4 KiB (0%)
  239. Title                                    : Finnish
  240. Language                                 : Finnish
  241. Default                                  : No
  242. Forced                                   : No

  243. Text #16
  244. ID                                       : 18
  245. Format                                   : UTF-8
  246. Codec ID                                 : S_TEXT/UTF8
  247. Codec ID/Info                            : UTF-8 Plain Text
  248. Duration                                 : 2 h 22 min
  249. Bit rate                                 : 80 b/s
  250. Count of elements                        : 2359
  251. Stream size                              : 83.6 KiB (0%)
  252. Title                                    : French
  253. Language                                 : French
  254. Default                                  : No
  255. Forced                                   : No

  256. Text #17
  257. ID                                       : 19
  258. Format                                   : UTF-8
  259. Codec ID                                 : S_TEXT/UTF8
  260. Codec ID/Info                            : UTF-8 Plain Text
  261. Duration                                 : 2 h 22 min
  262. Bit rate                                 : 72 b/s
  263. Count of elements                        : 2354
  264. Stream size                              : 75.5 KiB (0%)
  265. Title                                    : Turkish
  266. Language                                 : Turkish
  267. Default                                  : No
  268. Forced                                   : No
复制代码

完善独裁 The.Perfect.Dictatorship.2014.DUBBED.1080p.NF.WEBRip.DD5.1.x264-TOMMY 3.70GB-2.png 完善独裁 The.Perfect.Dictatorship.2014.DUBBED.1080p.NF.WEBRip.DD5.1.x264-TOMMY 3.70GB-3.png 完善独裁 The.Perfect.Dictatorship.2014.DUBBED.1080p.NF.WEBRip.DD5.1.x264-TOMMY 3.70GB-4.png







VIP会员免费任意下载本站所有资源!---点击开通
回复

使用道具 举报

懒得打字嘛,点击右侧快捷回复 【右侧内容,后台自定义】
您需要登录后才可以回帖 登录 | 立即注册

本版积分规则

QQ|Archiver|手机版|小黑屋| 中国高清网 |网站地图

GMT+8, 2019-11-22 04:59 , Processed in 0.257066 second(s), 37 queries .

Powered by HDchina X3.4

Copyright 2017-2019©HDchina.All right reserved

返回顶部 联系我们