查看: 12|回复: 0

[惊悚片] 捕鹰 The.Pursuit.of.D.B.Cooper.1981.1080p.AMZN.WEBRip.DD2.0.x264-QOQ 9.80GB

[复制链接]

 成长值: 3160

级别:资源管理组

注册时间
2017-10-20
最后登录
2019-11-11
听众
1
收听
0
主题
86761
蓝光币
61863 枚
贡献
11119 点
发表于 5 天前 | 显示全部楼层 |阅读模式
捕鹰 The.Pursuit.of.D.B.Cooper.1981.1080p.AMZN.WEBRip.DD2.0.x264-QOQ 9.80GB-1.png

译  名 捕鹰
片  名 The Pursuit of D.B. Cooper
年  代 1981
产  地 美国
类  别 惊悚 / 犯罪 / 冒险
语  言 英语
上映日期 1981-11-13
IMDb评分  5.6/10 from 982 users
IMDb链接  https://www.imdb.com/title/tt0082958
豆瓣评分 0/10 from 0 users
豆瓣链接 https://movie.douban.com/subject/1293063/
片  长 100 分钟
导  演 罗杰·斯波蒂斯伍德 Roger Spottiswoode
编  剧 J.D. Reed / 杰弗里·艾伦·菲斯金 Jeffrey Alan Fiskin
主  演 Robert Duvall
       Treat Williams


标  签 犯罪 | 美国 | 被轻忽的电影 | 美国电影 | 黑帮 | 谔谔 | 警匪 | 典范老片

简  介  

  本片按照美国史上最著名也是最奥秘,至今仍未破获的飞机劫案改编而成。劫案配角就是台甫鼎鼎的D.B COOPER,在掠夺后单身从一万公尺高空跳伞脱逃,尔后美国警方与FBI放哨多年也并未抓获真凶。
  http://zhidao.baidu.com/question/59706193.html?si=1
  1. Video
  2. ID                                       : 1
  3. Format                                   : AVC
  4. Format/Info                              : Advanced Video Codec
  5. Format profile                           : High@L4
  6. Format settings                          : CABAC / 4 Ref Frames
  7. Format settings, CABAC                   : Yes
  8. Format settings, Reference frames        : 4 frames
  9. Codec ID                                 : V_MPEG4/ISO/AVC
  10. Duration                                 : 1 h 40 min
  11. Bit rate mode                            : Variable
  12. Bit rate                                 : 13.7 Mb/s
  13. Maximum bit rate                         : 15.0 Mb/s
  14. Width                                    : 1 920 pixels
  15. Height                                   : 1 080 pixels
  16. Display aspect ratio                     : 16:9
  17. Frame rate mode                          : Constant
  18. Frame rate                               : 23.976 (24000/1001) FPS
  19. Color space                              : YUV
  20. Chroma subsampling                       : 4:2:0
  21. Bit depth                                : 8 bits
  22. Scan type                                : Progressive
  23. Bits/(Pixel*Frame)                       : 0.275
  24. Stream size                              : 9.64 GiB (98%)
  25. Writing library                          : x264 core 148 r2623 d5b2374
  26. Encoding settings                        : cabac=1 / ref=4 / deblock=1:-1:-1 / analyse=0x3:0x133 / me=umh / subme=9 / psy=1 / psy_rd=1.00:0.15 / mixed_ref=1 / me_range=24 / chroma_me=1 / trellis=2 / 8x8dct=1 / cqm=0 / deadzone=21,11 / fast_pskip=1 / chroma_qp_offset=-3 / threads=34 / lookahead_threads=5 / sliced_threads=0 / nr=150 / decimate=1 / interlaced=0 / bluray_compat=0 / constrained_intra=0 / bframes=8 / b_pyramid=2 / b_adapt=2 / b_bias=0 / direct=3 / weightb=1 / open_gop=0 / weightp=2 / keyint=120 / keyint_min=61 / scenecut=0 / intra_refresh=0 / rc_lookahead=120 / rc=crf / mbtree=1 / crf=18.0 / qcomp=0.60 / qpmin=0 / qpmax=69 / qpstep=4 / vbv_maxrate=15000 / vbv_bufsize=31250 / crf_max=0.0 / nal_hrd=vbr / filler=0 / ip_ratio=1.40 / aq=3:1.00
  27. Default                                  : Yes
  28. Forced                                   : No
  29. Color range                              : Limited
  30. Color primaries                          : BT.709
  31. Transfer characteristics                 : BT.709
  32. Matrix coefficients                      : BT.709

  33. Audio
  34. ID                                       : 2
  35. Format                                   : E-AC-3
  36. Format/Info                              : Enhanced AC-3
  37. Commercial name                          : Dolby Digital Plus
  38. Codec ID                                 : A_EAC3
  39. Duration                                 : 1 h 40 min
  40. Bit rate mode                            : Constant
  41. Bit rate                                 : 224 kb/s
  42. Channel(s)                               : 2 channels
  43. Channel layout                           : L R
  44. Sampling rate                            : 48.0 kHz
  45. Frame rate                               : 31.250 FPS (1536 SPF)
  46. Compression mode                         : Lossy
  47. Stream size                              : 162 MiB (2%)
  48. Language                                 : English
  49. Service kind                             : Complete Main
  50. Default                                  : Yes
  51. Forced                                   : No

  52. Text
  53. ID                                       : 3
  54. Format                                   : UTF-8
  55. Codec ID                                 : S_TEXT/UTF8
  56. Codec ID/Info                            : UTF-8 Plain Text
  57. Duration                                 : 1 h 39 min
  58. Bit rate                                 : 61 b/s
  59. Count of elements                        : 1448
  60. Stream size                              : 44.4 KiB (0%)
  61. Language                                 : English
  62. Default                                  : No
  63. Forced                                   : No
复制代码

捕鹰 The.Pursuit.of.D.B.Cooper.1981.1080p.AMZN.WEBRip.DD2.0.x264-QOQ 9.80GB-2.png 190648z0gemwrt1wmxr27t.png 捕鹰 The.Pursuit.of.D.B.Cooper.1981.1080p.AMZN.WEBRip.DD2.0.x264-QOQ 9.80GB-4.png







VIP会员免费任意下载本站所有资源!---点击开通
回复

使用道具 举报

懒得打字嘛,点击右侧快捷回复 【右侧内容,后台自定义】
您需要登录后才可以回帖 登录 | 立即注册

本版积分规则

QQ|Archiver|手机版|小黑屋| 中国高清网 |网站地图 

GMT+8, 2019-11-15 11:12 , Processed in 0.277980 second(s), 37 queries .

Powered by HDchina X3.4

Copyright 2017-2019©HDchina.All right reserved

返回顶部 联系我们