查看: 11|回复: 0

[纪录片] 戴安娜的问 Theres.Something.Wrong.with.Aunt.Diane.2011.1080p.AMZN.WEBRip.DDP2.0.x264-SiGMA 8.00GB

[复制链接]

 成长值: 3140

级别:资源管理组

注册时间
2017-10-20
最后登录
2019-11-11
听众
1
收听
0
主题
86761
蓝光币
61615 枚
贡献
11119 点
发表于 3 天前 | 显示全部楼层 |阅读模式
戴安娜的问 Theres.Something.Wrong.with.Aunt.Diane.2011.1080p.AMZN.WEBRip.DDP2.0.x264-SiGMA 8.00GB-1.png

译  名 戴安娜的问
片  名 There's Something Wrong with Aunt Diane
年  代 2011
产  地 澳大利亚
语  言 英语
IMDb评分  6.7/10 from 3709 users
IMDb链接  https://www.imdb.com/title/tt2011325
豆瓣评分 0/10 from 0 users
豆瓣链接 https://movie.douban.com/subject/10539601/
片  长 100分钟
导  演 Liz Garbus

标  签 记载片 | HBO | 美国 | 想看 | Documentary | 电影

简  介  

  In July 2008, as horrified drivers swerve to avoid her, 36-year-old Diane Schuler drove for 1.7 miles the wrong way in the fast lane of traffic of the Teconic State Parkway in the Hudson Valley of New York resulting in eight deaths, including her own. An autopsy showed Diane Schuler had high levels of both alcohol and marijuana in her system when she made the fateful decision to enter the northbound Taconic heading south on a Sunday afternoon with five children in her minivan. Four of them died, including her 2-year-old daughter and three nieces as well as three men in the SUV she hit. But was alcohol really the culprit of the tragic events- or did Diane suffer a stroke or some other mysterious physical malady? That is precisely the question her husband and sister-in-law attempt to answer when they embark on a crusade to prove that Diane Schuler wasn't an alcoholic and in fact was a seemingly model mother and citizen. They hire a private investigator to uncover the real facts surrounding that day and ensuing events. But the truth can be deceptive....will they ever find out what really happened?
  1. Video
  2. ID                                       : 1
  3. Format                                   : AVC
  4. Format/Info                              : Advanced Video Codec
  5. Format profile                           : High@L4
  6. Format settings                          : CABAC / 4 Ref Frames
  7. Format settings, CABAC                   : Yes
  8. Format settings, Reference frames        : 4 frames
  9. Codec ID                                 : V_MPEG4/ISO/AVC
  10. Duration                                 : 1 h 40 min
  11. Bit rate mode                            : Variable
  12. Bit rate                                 : 11.2 Mb/s
  13. Maximum bit rate                         : 15.0 Mb/s
  14. Width                                    : 1 920 pixels
  15. Height                                   : 1 080 pixels
  16. Display aspect ratio                     : 16:9
  17. Frame rate mode                          : Constant
  18. Frame rate                               : 23.976 (24000/1001) FPS
  19. Color space                              : YUV
  20. Chroma subsampling                       : 4:2:0
  21. Bit depth                                : 8 bits
  22. Scan type                                : Progressive
  23. Bits/(Pixel*Frame)                       : 0.225
  24. Stream size                              : 7.84 GiB (98%)
  25. Writing library                          : x264 core 148 r2623 d5b2374
  26. Encoding settings                        : cabac=1 / ref=4 / deblock=1:-1:-1 / analyse=0x3:0x133 / me=umh / subme=9 / psy=1 / psy_rd=1.00:0.15 / mixed_ref=1 / me_range=24 / chroma_me=1 / trellis=2 / 8x8dct=1 / cqm=0 / deadzone=21,11 / fast_pskip=1 / chroma_qp_offset=-3 / threads=34 / lookahead_threads=5 / sliced_threads=0 / nr=150 / decimate=1 / interlaced=0 / bluray_compat=0 / constrained_intra=0 / bframes=8 / b_pyramid=2 / b_adapt=2 / b_bias=0 / direct=3 / weightb=1 / open_gop=0 / weightp=2 / keyint=120 / keyint_min=61 / scenecut=0 / intra_refresh=0 / rc_lookahead=120 / rc=crf / mbtree=1 / crf=18.0 / qcomp=0.60 / qpmin=0 / qpmax=69 / qpstep=4 / vbv_maxrate=15000 / vbv_bufsize=31250 / crf_max=0.0 / nal_hrd=vbr / filler=0 / ip_ratio=1.40 / aq=3:1.00
  27. Default                                  : Yes
  28. Forced                                   : No
  29. Color range                              : Limited
  30. Color primaries                          : BT.709
  31. Transfer characteristics                 : BT.709
  32. Matrix coefficients                      : BT.709

  33. Audio
  34. ID                                       : 2
  35. Format                                   : E-AC-3
  36. Format/Info                              : Enhanced AC-3
  37. Commercial name                          : Dolby Digital Plus
  38. Codec ID                                 : A_EAC3
  39. Duration                                 : 1 h 40 min
  40. Bit rate mode                            : Constant
  41. Bit rate                                 : 224 kb/s
  42. Channel(s)                               : 2 channels
  43. Channel layout                           : L R
  44. Sampling rate                            : 48.0 kHz
  45. Frame rate                               : 31.250 FPS (1536 SPF)
  46. Compression mode                         : Lossy
  47. Stream size                              : 161 MiB (2%)
  48. Language                                 : English
  49. Service kind                             : Complete Main
  50. Default                                  : Yes
  51. Forced                                   : No

  52. Text
  53. ID                                       : 3
  54. Format                                   : UTF-8
  55. Codec ID                                 : S_TEXT/UTF8
  56. Codec ID/Info                            : UTF-8 Plain Text
  57. Duration                                 : 1 h 37 min
  58. Bit rate                                 : 87 b/s
  59. Count of elements                        : 1249
  60. Stream size                              : 62.4 KiB (0%)
  61. Language                                 : English
  62. Default                                  : No
  63. Forced                                   : No
复制代码

戴安娜的问 Theres.Something.Wrong.with.Aunt.Diane.2011.1080p.AMZN.WEBRip.DDP2.0.x264-SiGMA 8.00GB-2.png 戴安娜的问 Theres.Something.Wrong.with.Aunt.Diane.2011.1080p.AMZN.WEBRip.DDP2.0.x264-SiGMA 8.00GB-3.png 戴安娜的问 Theres.Something.Wrong.with.Aunt.Diane.2011.1080p.AMZN.WEBRip.DDP2.0.x264-SiGMA 8.00GB-4.png 戴安娜的问 Theres.Something.Wrong.with.Aunt.Diane.2011.1080p.AMZN.WEBRip.DDP2.0.x264-SiGMA 8.00GB-5.png 戴安娜的问 Theres.Something.Wrong.with.Aunt.Diane.2011.1080p.AMZN.WEBRip.DDP2.0.x264-SiGMA 8.00GB-6.png 戴安娜的问 Theres.Something.Wrong.with.Aunt.Diane.2011.1080p.AMZN.WEBRip.DDP2.0.x264-SiGMA 8.00GB-7.png







VIP会员免费任意下载本站所有资源!---点击开通
回复

使用道具 举报

懒得打字嘛,点击右侧快捷回复 【右侧内容,后台自定义】
您需要登录后才可以回帖 登录 | 立即注册

本版积分规则

QQ|Archiver|手机版|小黑屋| 中国高清网 |网站地图 

GMT+8, 2019-11-13 17:30 , Processed in 23.007907 second(s), 37 queries .

Powered by HDchina X3.4

Copyright 2017-2019©HDchina.All right reserved

返回顶部 联系我们