查看: 9|回复: 0

[剧情片] 高校奇女子 What.Goes.Up.2009.1080p.AMZN.WEBRip.DDP5.1.x264-ABM 9.33GB

[复制链接]

 成长值: 3160

级别:资源管理组

注册时间
2017-10-20
最后登录
2019-11-15
听众
1
收听
0
主题
86768
蓝光币
61946 枚
贡献
11126 点
发表于 5 天前 | 显示全部楼层 |阅读模式
高校奇女子 What.Goes.Up.2009.1080p.AMZN.WEBRip.DDP5.1.x264-ABM 9.33GB-1.png

译  名 高校奇女子 / Safety Glass / 平安玻璃
片  名 What Goes Up
年  代 2009
产  地 美国
类  别 剧情
语  言 英语
上映日期 2009-05-06
IMDb评分  5.4/10 from 1769 users
IMDb链接  https://www.imdb.com/title/tt0832318
豆瓣评分 5.3/10 from 261 users
豆瓣链接 https://movie.douban.com/subject/2158228/
导  演 Jonathan Glatzer
编  剧 Jonathan Glatzer / Robert Lawson
主  演 Steve Coogan
       Hilary Duff
       Olivia Thirlby
       Josh Peck
       Molly Shannon
       Molly Price


标  签 HilaryDuff | 美国 | 美国电影 | 我看过的电影 | 我看过的英语电影 | 2009 | 电影 | 剧情

简  介  

  故事发生在80年月的美国,坎贝尔(史蒂夫·库根 Steve Coogan 饰)是在纽约报任职的记者,未几之前,他的情人自杀身亡,使得坎贝尔一向都没法走出阴影,工作上有所倦怠,形成了主编的不满。主编将他发配到了一个偏僻的小镇上采访置之不理的小消息。坎贝尔想起自己已经的大学同学山姆在这里当教员,决议造访他,以后震动的得知,山姆在未几之前往世了。
  坎贝尔决议山姆的死并不像概况看起来的那末简单,便决议将此作为报道素材,深入追踪观察。在彻完全底的融入了山姆的朋友圈后,坎贝尔终究发现了山姆费心隐藏的奥秘以及他实在的死因。
  1. Video
  2. ID                                       : 1
  3. Format                                   : AVC
  4. Format/Info                              : Advanced Video Codec
  5. Format profile                           : High@L4
  6. Format settings                          : CABAC / 4 Ref Frames
  7. Format settings, CABAC                   : Yes
  8. Format settings, Reference frames        : 4 frames
  9. Codec ID                                 : V_MPEG4/ISO/AVC
  10. Duration                                 : 1 h 55 min
  11. Bit rate mode                            : Variable
  12. Bit rate                                 : 10.9 Mb/s
  13. Maximum bit rate                         : 15.0 Mb/s
  14. Width                                    : 1 920 pixels
  15. Height                                   : 1 080 pixels
  16. Display aspect ratio                     : 16:9
  17. Frame rate mode                          : Constant
  18. Frame rate                               : 23.976 (24000/1001) FPS
  19. Color space                              : YUV
  20. Chroma subsampling                       : 4:2:0
  21. Bit depth                                : 8 bits
  22. Scan type                                : Progressive
  23. Bits/(Pixel*Frame)                       : 0.220
  24. Stream size                              : 8.82 GiB (94%)
  25. Writing library                          : x264 core 148 r2623 d5b2374
  26. Encoding settings                        : cabac=1 / ref=4 / deblock=1:-1:-1 / analyse=0x3:0x133 / me=umh / subme=9 / psy=1 / psy_rd=1.00:0.15 / mixed_ref=1 / me_range=24 / chroma_me=1 / trellis=2 / 8x8dct=1 / cqm=0 / deadzone=21,11 / fast_pskip=1 / chroma_qp_offset=-3 / threads=34 / lookahead_threads=5 / sliced_threads=0 / nr=150 / decimate=1 / interlaced=0 / bluray_compat=0 / constrained_intra=0 / bframes=8 / b_pyramid=2 / b_adapt=2 / b_bias=0 / direct=3 / weightb=1 / open_gop=0 / weightp=2 / keyint=120 / keyint_min=61 / scenecut=0 / intra_refresh=0 / rc_lookahead=120 / rc=crf / mbtree=1 / crf=18.0 / qcomp=0.60 / qpmin=0 / qpmax=69 / qpstep=4 / vbv_maxrate=15000 / vbv_bufsize=31250 / crf_max=0.0 / nal_hrd=vbr / filler=0 / ip_ratio=1.40 / aq=3:1.00
  27. Default                                  : Yes
  28. Forced                                   : No
  29. Color range                              : Limited
  30. Color primaries                          : BT.709
  31. Transfer characteristics                 : BT.709
  32. Matrix coefficients                      : BT.709

  33. Audio
  34. ID                                       : 2
  35. Format                                   : E-AC-3
  36. Format/Info                              : Enhanced AC-3
  37. Commercial name                          : Dolby Digital Plus
  38. Codec ID                                 : A_EAC3
  39. Duration                                 : 1 h 55 min
  40. Bit rate mode                            : Constant
  41. Bit rate                                 : 640 kb/s
  42. Channel(s)                               : 6 channels
  43. Channel layout                           : L R C LFE Ls Rs
  44. Sampling rate                            : 48.0 kHz
  45. Frame rate                               : 31.250 FPS (1536 SPF)
  46. Compression mode                         : Lossy
  47. Stream size                              : 528 MiB (6%)
  48. Language                                 : English
  49. Service kind                             : Complete Main
  50. Default                                  : Yes
  51. Forced                                   : No

  52. Text #1
  53. ID                                       : 3
  54. Format                                   : UTF-8
  55. Codec ID                                 : S_TEXT/UTF8
  56. Codec ID/Info                            : UTF-8 Plain Text
  57. Duration                                 : 1 h 55 min
  58. Bit rate                                 : 53 b/s
  59. Count of elements                        : 1515
  60. Stream size                              : 45.4 KiB (0%)
  61. Language                                 : English
  62. Default                                  : No
  63. Forced                                   : No

  64. Text #2
  65. ID                                       : 4
  66. Format                                   : UTF-8
  67. Codec ID                                 : S_TEXT/UTF8
  68. Codec ID/Info                            : UTF-8 Plain Text
  69. Duration                                 : 1 h 55 min
  70. Bit rate                                 : 55 b/s
  71. Count of elements                        : 1616
  72. Stream size                              : 47.0 KiB (0%)
  73. Title                                    : SDH
  74. Language                                 : English
  75. Default                                  : No
  76. Forced                                   : No
复制代码

高校奇女子 What.Goes.Up.2009.1080p.AMZN.WEBRip.DDP5.1.x264-ABM 9.33GB-2.png 高校奇女子 What.Goes.Up.2009.1080p.AMZN.WEBRip.DDP5.1.x264-ABM 9.33GB-3.png 高校奇女子 What.Goes.Up.2009.1080p.AMZN.WEBRip.DDP5.1.x264-ABM 9.33GB-4.png







VIP会员免费任意下载本站所有资源!---点击开通
回复

使用道具 举报

懒得打字嘛,点击右侧快捷回复 【右侧内容,后台自定义】
您需要登录后才可以回帖 登录 | 立即注册

本版积分规则

QQ|Archiver|手机版|小黑屋| 中国高清网 |网站地图 

GMT+8, 2019-11-15 20:11 , Processed in 0.231759 second(s), 37 queries .

Powered by HDchina X3.4

Copyright 2017-2019©HDchina.All right reserved

返回顶部 联系我们