查看: 9|回复: 0

[剧情片] 达拉斯猛龙/北达拉斯队 North.Dallas.Forty.1979.1080p.AMZN.WEBRip.DDP2.0.x264-monkee 11.47GB

[复制链接]

 成长值: 3160

级别:资源管理组

注册时间
2017-10-20
最后登录
2019-11-15
听众
1
收听
0
主题
86768
蓝光币
61946 枚
贡献
11126 点
发表于 5 天前 | 显示全部楼层 |阅读模式
达拉斯猛龙/北达拉斯队 North.Dallas.Forty.1979.1080p.AMZN.WEBRip.DDP2.0.x264-monkee 11.47GB-1.png

译  名 达拉斯猛龙 / 北达拉斯队
片  名 North Dallas Forty
年  代 1979
产  地 美国
类  别 剧情 / 笑剧 / 活动
语  言 英语
上映日期 1979-08-03
IMDb评分  7.0/10 from 4382 users
IMDb链接  https://www.imdb.com/title/tt0079640
豆瓣评分 0/10 from 0 users
豆瓣链接 https://movie.douban.com/subject/1300937/
片  长 119 分钟
导  演 特德·科特切夫 Ted Kotcheff
编  剧 弗兰克·雅布兰斯 Frank Yablans / 南希·多德 Nancy Dowd / Peter Gent
主  演 尼克·诺特 Nick Nolte
       马克·戴维斯 Mac Davis
       查尔斯·德恩 Charles Durning
       德欧·哈顿 Dayle Haddon
       博·史文森 Bo Svenson
       史蒂夫·弗罗斯特 Steve Forrest
       G·D·斯普拉德林 G.D. Spradlin
       达布尼·柯尔曼 Dabney Coleman


标  签 体育 | 美国 | 1979 | 美国电影 | 麦基保举 | 《故事》 | TedKotcheff | ...

简  介  

  故事围绕着一支职业橄榄球队——北达拉斯队展开。全队高低,从队员、教练到相关的工作职员,都以为尼克·诺特是最棒的球员。他不但技术好,而且聪明智慧,脑子灵活。可是球队老板却不喜好他。对他们来说,聪明过人的尼克无疑是一匹“害群之马”。是以,球队总是想找个听话点的人来取代他。可是对于尼克和他的好友迈克·戴维思( Mac Davis)而言,橄榄球是他们生活的全数。他们必须为之极力拼搏,虽然这会影响到他们在球队的前途。
  影片的最初是球队同盟决赛的四分之一场,北达拉斯队的对手是芝加哥队。在这个生死关头,虽然尼克仍面临着被解雇的危险,而几个对友也在角逐中重伤,但一切都已经变得无关紧急。现在他最大的愿望就是能全取六分。他真的能做到吗?
  1. Video
  2. ID                                       : 1
  3. Format                                   : AVC
  4. Format/Info                              : Advanced Video Codec
  5. Format profile                           : High@L4
  6. Format settings                          : CABAC / 4 Ref Frames
  7. Format settings, CABAC                   : Yes
  8. Format settings, Reference frames        : 4 frames
  9. Codec ID                                 : V_MPEG4/ISO/AVC
  10. Duration                                 : 1 h 58 min
  11. Bit rate mode                            : Variable
  12. Bit rate                                 : 13.7 Mb/s
  13. Maximum bit rate                         : 15.0 Mb/s
  14. Width                                    : 1 920 pixels
  15. Height                                   : 1 080 pixels
  16. Display aspect ratio                     : 16:9
  17. Frame rate mode                          : Constant
  18. Frame rate                               : 23.976 (24000/1001) FPS
  19. Color space                              : YUV
  20. Chroma subsampling                       : 4:2:0
  21. Bit depth                                : 8 bits
  22. Scan type                                : Progressive
  23. Bits/(Pixel*Frame)                       : 0.275
  24. Stream size                              : 11.3 GiB (98%)
  25. Writing library                          : x264 core 148 r2623 d5b2374
  26. Encoding settings                        : cabac=1 / ref=4 / deblock=1:-1:-1 / analyse=0x3:0x133 / me=umh / subme=9 / psy=1 / psy_rd=1.00:0.15 / mixed_ref=1 / me_range=24 / chroma_me=1 / trellis=2 / 8x8dct=1 / cqm=0 / deadzone=21,11 / fast_pskip=1 / chroma_qp_offset=-3 / threads=34 / lookahead_threads=5 / sliced_threads=0 / nr=150 / decimate=1 / interlaced=0 / bluray_compat=0 / constrained_intra=0 / bframes=8 / b_pyramid=2 / b_adapt=2 / b_bias=0 / direct=3 / weightb=1 / open_gop=0 / weightp=2 / keyint=120 / keyint_min=61 / scenecut=0 / intra_refresh=0 / rc_lookahead=120 / rc=crf / mbtree=1 / crf=18.0 / qcomp=0.60 / qpmin=0 / qpmax=69 / qpstep=4 / vbv_maxrate=15000 / vbv_bufsize=31250 / crf_max=0.0 / nal_hrd=vbr / filler=0 / ip_ratio=1.40 / aq=3:1.00
  27. Default                                  : Yes
  28. Forced                                   : No
  29. Color range                              : Limited
  30. Color primaries                          : BT.709
  31. Transfer characteristics                 : BT.709
  32. Matrix coefficients                      : BT.709

  33. Audio
  34. ID                                       : 2
  35. Format                                   : E-AC-3
  36. Format/Info                              : Enhanced AC-3
  37. Commercial name                          : Dolby Digital Plus
  38. Codec ID                                 : A_EAC3
  39. Duration                                 : 1 h 58 min
  40. Bit rate mode                            : Constant
  41. Bit rate                                 : 224 kb/s
  42. Channel(s)                               : 2 channels
  43. Channel layout                           : L R
  44. Sampling rate                            : 48.0 kHz
  45. Frame rate                               : 31.250 FPS (1536 SPF)
  46. Compression mode                         : Lossy
  47. Stream size                              : 189 MiB (2%)
  48. Language                                 : English
  49. Service kind                             : Complete Main
  50. Default                                  : Yes
  51. Forced                                   : No

  52. Text #1
  53. ID                                       : 3
  54. Format                                   : UTF-8
  55. Codec ID                                 : S_TEXT/UTF8
  56. Codec ID/Info                            : UTF-8 Plain Text
  57. Duration                                 : 1 h 55 min
  58. Bit rate                                 : 71 b/s
  59. Count of elements                        : 1939
  60. Stream size                              : 60.8 KiB (0%)
  61. Language                                 : English
  62. Default                                  : No
  63. Forced                                   : No

  64. Text #2
  65. ID                                       : 4
  66. Format                                   : UTF-8
  67. Codec ID                                 : S_TEXT/UTF8
  68. Codec ID/Info                            : UTF-8 Plain Text
  69. Duration                                 : 1 h 55 min
  70. Bit rate                                 : 74 b/s
  71. Count of elements                        : 2091
  72. Stream size                              : 63.4 KiB (0%)
  73. Title                                    : SDH
  74. Language                                 : English
  75. Default                                  : No
  76. Forced                                   : No
复制代码

达拉斯猛龙/北达拉斯队 North.Dallas.Forty.1979.1080p.AMZN.WEBRip.DDP2.0.x264-monkee 11.47GB-2.png 达拉斯猛龙/北达拉斯队 North.Dallas.Forty.1979.1080p.AMZN.WEBRip.DDP2.0.x264-monkee 11.47GB-3.png 达拉斯猛龙/北达拉斯队 North.Dallas.Forty.1979.1080p.AMZN.WEBRip.DDP2.0.x264-monkee 11.47GB-4.png






VIP会员免费任意下载本站所有资源!---点击开通
回复

使用道具 举报

懒得打字嘛,点击右侧快捷回复 【右侧内容,后台自定义】
您需要登录后才可以回帖 登录 | 立即注册

本版积分规则

QQ|Archiver|手机版|小黑屋| 中国高清网 |网站地图 

GMT+8, 2019-11-15 20:21 , Processed in 0.227253 second(s), 37 queries .

Powered by HDchina X3.4

Copyright 2017-2019©HDchina.All right reserved

返回顶部 联系我们