查看: 10|回复: 0

[剧情片] 天降奇迹 The.UnMiracle.2017.1080p.NF.WEBRip.DD5.1.x264-SiGMA 3.52GB

[复制链接]

 成长值: 3230

级别:资源管理组

注册时间
2017-10-20
最后登录
2019-11-21
听众
1
收听
0
主题
87390
蓝光币
63616 枚
贡献
11749 点
发表于 2019-11-10 18:52:31 | 显示全部楼层 |阅读模式
天降奇迹 The.UnMiracle.2017.1080p.NF.WEBRip.DD5.1.x264-SiGMA 3.52GB-1.png

译  名 天降奇迹
片  名 The UnMiracle
年  代 2015
产  地 美国
类  别 剧情
语  言 英语
上映日期 2017-08-01(美国)
IMDb评分  3.4/10 from 179 users
IMDb链接  https://www.imdb.com/title/tt3300712
豆瓣评分 0/10 from 0 users
豆瓣链接 https://movie.douban.com/subject/26628468/
片  长 121分钟
导  演 Andrew Papke
编  剧 Andrew Papke
主  演 史蒂芬·鲍德温 Stephen Baldwin
       Amy Lyndon
       凯文·索伯 Kevin Sorbo
       Connor Williams


标  签 美国 | 自我的解救 | 改变 | 戒毒 | 命运的摸索 | 信仰

简  介  

  黉舍裡最受接待的女孩凯拉与朋友在派对上吸毒,最初由于滥用药物过量昏迷送医,她的男友丹尼及朋友迪诺因惧怕,迟迟不敢率直毒品的泉源,虔敬信仰耶稣的亚林,同时也是他们的朋友,若何率领他们走出黑暗,凝听天主所要诉说的真理,以及女孩究竟能否再次甦醒,重新展望新人生…
  1. Video
  2. ID                                       : 1
  3. Format                                   : AVC
  4. Format/Info                              : Advanced Video Codec
  5. Format profile                           : High@L4
  6. Format settings                          : CABAC / 3 Ref Frames
  7. Format settings, CABAC                   : Yes
  8. Format settings, Reference frames        : 3 frames
  9. Codec ID                                 : V_MPEG4/ISO/AVC
  10. Duration                                 : 1 h 36 min
  11. Bit rate mode                            : Variable
  12. Bit rate                                 : 4 870 kb/s
  13. Maximum bit rate                         : 7 305 kb/s
  14. Width                                    : 1 920 pixels
  15. Height                                   : 1 080 pixels
  16. Display aspect ratio                     : 16:9
  17. Frame rate mode                          : Constant
  18. Frame rate                               : 23.976 (24000/1001) FPS
  19. Color space                              : YUV
  20. Chroma subsampling                       : 4:2:0
  21. Bit depth                                : 8 bits
  22. Scan type                                : Progressive
  23. Bits/(Pixel*Frame)                       : 0.098
  24. Stream size                              : 3.26 GiB (93%)
  25. Writing library                          : x264 core 148
  26. Encoding settings                        : cabac=1 / ref=3 / deblock=1:0:0 / analyse=0x1:0x111 / me=umh / subme=10 / psy=1 / psy_rd=1.00:0.00 / mixed_ref=1 / me_range=24 / chroma_me=1 / trellis=2 / 8x8dct=0 / cqm=0 / deadzone=21,11 / fast_pskip=1 / chroma_qp_offset=-2 / threads=8 / lookahead_threads=1 / sliced_threads=0 / nr=0 / decimate=1 / interlaced=0 / bluray_compat=0 / stitchable=1 / constrained_intra=0 / bframes=2 / b_pyramid=0 / b_adapt=2 / b_bias=0 / direct=3 / weightb=1 / open_gop=0 / weightp=2 / keyint=48 / keyint_min=25 / scenecut=0 / intra_refresh=0 / rc_lookahead=48 / rc=2pass / mbtree=1 / bitrate=4870 / ratetol=1.0 / qcomp=0.50 / qpmin=6 / qpmax=51 / qpstep=4 / cplxblur=20.0 / qblur=0.5 / vbv_maxrate=7305 / vbv_bufsize=9740 / nal_hrd=vbr / filler=0 / ip_ratio=1.40 / aq=1:1.00
  27. Default                                  : Yes
  28. Forced                                   : No

  29. Audio
  30. ID                                       : 2
  31. Format                                   : AC-3
  32. Format/Info                              : Audio Coding 3
  33. Commercial name                          : Dolby Digital
  34. Codec ID                                 : A_AC3
  35. Duration                                 : 1 h 36 min
  36. Bit rate mode                            : Constant
  37. Bit rate                                 : 384 kb/s
  38. Channel(s)                               : 6 channels
  39. Channel layout                           : L R C LFE Ls Rs
  40. Sampling rate                            : 48.0 kHz
  41. Frame rate                               : 31.250 FPS (1536 SPF)
  42. Bit depth                                : 16 bits
  43. Compression mode                         : Lossy
  44. Stream size                              : 264 MiB (7%)
  45. Language                                 : English
  46. Service kind                             : Complete Main
  47. Default                                  : Yes
  48. Forced                                   : No

  49. Text
  50. ID                                       : 3
  51. Format                                   : UTF-8
  52. Codec ID                                 : S_TEXT/UTF8
  53. Codec ID/Info                            : UTF-8 Plain Text
  54. Duration                                 : 1 h 34 min
  55. Bit rate                                 : 65 b/s
  56. Count of elements                        : 1558
  57. Stream size                              : 45.7 KiB (0%)
  58. Title                                    : SDH
  59. Language                                 : English
  60. Default                                  : No
  61. Forced                                   : No
复制代码

185112arm5e788qzuvur24.png 天降奇迹 The.UnMiracle.2017.1080p.NF.WEBRip.DD5.1.x264-SiGMA 3.52GB-3.png 天降奇迹 The.UnMiracle.2017.1080p.NF.WEBRip.DD5.1.x264-SiGMA 3.52GB-4.png 天降奇迹 The.UnMiracle.2017.1080p.NF.WEBRip.DD5.1.x264-SiGMA 3.52GB-5.png 天降奇迹 The.UnMiracle.2017.1080p.NF.WEBRip.DD5.1.x264-SiGMA 3.52GB-6.png 天降奇迹 The.UnMiracle.2017.1080p.NF.WEBRip.DD5.1.x264-SiGMA 3.52GB-7.png







VIP会员免费任意下载本站所有资源!---点击开通
回复

使用道具 举报

懒得打字嘛,点击右侧快捷回复 【右侧内容,后台自定义】
您需要登录后才可以回帖 登录 | 立即注册

本版积分规则

QQ|Archiver|手机版|小黑屋| 中国高清网 |网站地图

GMT+8, 2019-11-22 06:02 , Processed in 0.202848 second(s), 37 queries .

Powered by HDchina X3.4

Copyright 2017-2019©HDchina.All right reserved

返回顶部 联系我们