查看: 8|回复: 0

[动作片] 从足球流氓到黑帮崛起4 Rise.of.the.Footsoldier.Marbella.2019.1080p.WEB-DL.DD5.1.H264-FGT 3.

[复制链接]

 成长值: 3160

级别:资源管理组

注册时间
2017-10-20
最后登录
2019-11-15
听众
1
收听
0
主题
86774
蓝光币
61946 枚
贡献
11132 点
发表于 5 天前 | 显示全部楼层 |阅读模式
MV5BYzkzN2QyMWQtYjQ3NC00NTYxLWI5YjctZDVjNGYxNzJkMTU2XkEyXkFqcGdeQXVyMTg4NzkwMA@@.jpg

译  名 从足球地痞到黑帮突起4
片  名 Rise of the Footsoldier 4: Marbella
年  代 2019
产  地 英国
类  别 行动 / 犯罪
语  言 英语
IMDb评分  7.7/10 from 7 users
IMDb链接  https://www.imdb.com/title/tt8769300
豆瓣评分 0/10 from 0 users
豆瓣链接 https://movie.douban.com/subject/30294889/
主  演 Craig Fairbrass


简  介  

  Fresh out of prison, Pat Tate (Craig Fairbrass) steps right back into his Essex nightclub business. But although the money is good, he can't stop brooding about the man who had him put away. It's not long before he's off to Marbella to find Frank Harris and seek his revenge. But Harris is long dead and the middle man Terry Fisher offers Pat the biggest drug deal of his life. All Pat needs is for his pals m.ysgou.cc Tony and Craig to deliver the cash from Essex to close the deal. But Craig being Craig, turns a simple plane trip to a massive road trip with a stolen VW van and its hippie German owner in tow. All Tony wants is to make it back in time to support his best friend Nigel Benn at the boxing match of his life. But when their cash gets stolen and Pat is threatened by a local firm, Pat comes up with an even more audacious plan and to get them back to England in time for Tony to walk Nigel Benn out to one of history's greatest fights.
  1. Video
  2. ID                                       : 1
  3. Format                                   : AVC
  4. Format/Info                              : Advanced Video Codec
  5. Format profile                           : High@L4
  6. Format settings                          : CABAC / 4 Ref Frames
  7. Format settings, CABAC                   : Yes
  8. Format settings, Reference frames        : 4 frames
  9. Codec ID                                 : V_MPEG4/ISO/AVC
  10. Duration                                 : 1 h 25 min
  11. Bit rate                                 : 5 053 kb/s
  12. Width                                    : 1 916 pixels
  13. Height                                   : 956 pixels
  14. Display aspect ratio                     : 2.004
  15. Frame rate mode                          : Constant
  16. Frame rate                               : 24.000 FPS
  17. Color space                              : YUV
  18. Chroma subsampling                       : 4:2:0
  19. Bit depth                                : 8 bits
  20. Scan type                                : Progressive
  21. Bits/(Pixel*Frame)                       : 0.115
  22. Stream size                              : 3.00 GiB (93%)
  23. Title                                    : Rise.of.the.Footsoldier.Marbella.2019.1080p.WEB-DL.DD5.1.H264-FGT
  24. Language                                 : English
  25. Default                                  : Yes
  26. Forced                                   : No
  27. Color range                              : Limited
  28. Color primaries                          : BT.709
  29. Transfer characteristics                 : BT.709
  30. Matrix coefficients                      : BT.709

  31. Audio
  32. ID                                       : 2
  33. Format                                   : AC-3
  34. Format/Info                              : Audio Coding 3
  35. Commercial name                          : Dolby Digital
  36. Codec ID                                 : A_AC3
  37. Duration                                 : 1 h 25 min
  38. Bit rate mode                            : Constant
  39. Bit rate                                 : 384 kb/s
  40. Channel(s)                               : 6 channels
  41. Channel layout                           : L R C LFE Ls Rs
  42. Sampling rate                            : 48.0 kHz
  43. Frame rate                               : 31.250 FPS (1536 SPF)
  44. Bit depth                                : 16 bits
  45. Compression mode                         : Lossy
  46. Stream size                              : 234 MiB (7%)
  47. Title                                    : Rise.of.the.Footsoldier.Marbella.2019.1080p.WEB-DL.DD5.1.H264-FGT
  48. Language                                 : English
  49. Service kind                             : Complete Main
  50. Default                                  : Yes
  51. Forced                                   : No

  52. Menu
  53. 00:00:00.000                             : en:Chapter 1
  54. 00:23:44.000                             : en:Chapter 2
  55. 00:42:16.166                             : en:Chapter 3
  56. 01:00:54.791                             : en:Chapter 4
  57. 01:20:59.291                             : en:Chapter 5
复制代码

从足球地痞到黑帮突起4 Rise.of.the.Footsoldier.Marbella.2019.1080p.WEB-DL.DD5.1.H264-FGT 3.-1.png 从足球地痞到黑帮突起4 Rise.of.the.Footsoldier.Marbella.2019.1080p.WEB-DL.DD5.1.H264-FGT 3.-2.png 从足球地痞到黑帮突起4 Rise.of.the.Footsoldier.Marbella.2019.1080p.WEB-DL.DD5.1.H264-FGT 3.-3.png






VIP会员免费任意下载本站所有资源!---点击开通
回复

使用道具 举报

懒得打字嘛,点击右侧快捷回复 【右侧内容,后台自定义】
您需要登录后才可以回帖 登录 | 立即注册

本版积分规则

QQ|Archiver|手机版|小黑屋| 中国高清网 |网站地图 

GMT+8, 2019-11-15 20:31 , Processed in 0.230670 second(s), 37 queries .

Powered by HDchina X3.4

Copyright 2017-2019©HDchina.All right reserved

返回顶部 联系我们