查看: 11|回复: 0

[惊悚片] 如梦初醒 Wake.Up.2019.1080p.WEB-DL.DD5.1.H264-FGT 3.02GB

[复制链接]

 成长值: 3160

级别:资源管理组

注册时间
2017-10-20
最后登录
2019-11-11
听众
1
收听
0
主题
86761
蓝光币
61827 枚
贡献
11119 点
发表于 5 天前 | 显示全部楼层 |阅读模式
恍然大悟 Wake.Up.2019.1080p.WEB-DL.DD5.1.H264-FGT 3.02GB-1.png

译  名 恍然大悟 / Do Not Read
片  名 Wake Up
年  代 2019
产  地 美国
类  别 惊悚 / 可骇
语  言 英语
上映日期 2019-01-09(美国)
IMDb评分  5.9/10 from 22 users
IMDb链接  https://www.imdb.com/title/tt7222228
豆瓣评分 0/10 from 0 users
豆瓣链接 https://movie.douban.com/subject/33402660/
片  长 77分钟
导  演 Joe W Nowland
编  剧 Joe W Nowland / Daniel White
主  演 Kelly Frances Fischer
       Scott Broughton
       Traci L. Newman


标  签 灵异 | 惊悚 | 美国电影 | 美国 | 可骇 | 12

简  介  

  When a psychiatric doctor researches a young girls' diary to find out why she murdered her entire family, he begins to fall into the same state of insomnia and confusion that led her to lose her mind.
  1. Video
  2. ID                                       : 1
  3. Format                                   : AVC
  4. Format/Info                              : Advanced Video Codec
  5. Format profile                           : High@L4
  6. Format settings                          : CABAC / 4 Ref Frames
  7. Format settings, CABAC                   : Yes
  8. Format settings, Reference frames        : 4 frames
  9. Codec ID                                 : V_MPEG4/ISO/AVC
  10. Duration                                 : 1 h 17 min
  11. Bit rate                                 : 5 164 kb/s
  12. Width                                    : 1 912 pixels
  13. Height                                   : 1 072 pixels
  14. Display aspect ratio                     : 16:9
  15. Frame rate mode                          : Constant
  16. Frame rate                               : 23.976 (24000/1001) FPS
  17. Color space                              : YUV
  18. Chroma subsampling                       : 4:2:0
  19. Bit depth                                : 8 bits
  20. Scan type                                : Progressive
  21. Bits/(Pixel*Frame)                       : 0.105
  22. Stream size                              : 2.81 GiB (93%)
  23. Title                                    : Wake.Up.2019.1080p.WEB-DL.DD5.1.H264-FGT
  24. Language                                 : English
  25. Default                                  : Yes
  26. Forced                                   : No
  27. Color range                              : Limited
  28. Color primaries                          : BT.709
  29. Transfer characteristics                 : BT.709
  30. Matrix coefficients                      : BT.709

  31. Audio
  32. ID                                       : 2
  33. Format                                   : AC-3
  34. Format/Info                              : Audio Coding 3
  35. Commercial name                          : Dolby Digital
  36. Codec ID                                 : A_AC3
  37. Duration                                 : 1 h 17 min
  38. Bit rate mode                            : Constant
  39. Bit rate                                 : 384 kb/s
  40. Channel(s)                               : 6 channels
  41. Channel layout                           : L R C LFE Ls Rs
  42. Sampling rate                            : 48.0 kHz
  43. Frame rate                               : 31.250 FPS (1536 SPF)
  44. Bit depth                                : 16 bits
  45. Compression mode                         : Lossy
  46. Stream size                              : 214 MiB (7%)
  47. Title                                    : Wake.Up.2019.1080p.WEB-DL.DD5.1.H264-FGT
  48. Language                                 : English
  49. Service kind                             : Complete Main
  50. Default                                  : Yes
  51. Forced                                   : No

  52. Text
  53. ID                                       : 3
  54. Format                                   : UTF-8
  55. Codec ID                                 : S_TEXT/UTF8
  56. Codec ID/Info                            : UTF-8 Plain Text
  57. Duration                                 : 1 h 15 min
  58. Bit rate                                 : 75 b/s
  59. Count of elements                        : 1281
  60. Stream size                              : 42.2 KiB (0%)
  61. Language                                 : English
  62. Default                                  : Yes
  63. Forced                                   : No

  64. Menu
  65. 00:00:00.000                             : en:Chapter 1
  66. 00:08:57.537                             : en:Chapter 2
  67. 00:21:01.260                             : en:Chapter 3
  68. 00:29:41.780                             : en:Chapter 4
  69. 00:41:15.473                             : en:Chapter 5
  70. 00:50:49.045                             : en:Chapter 6
  71. 00:58:36.512                             : en:Chapter 7
  72. 01:08:35.110                             : en:Chapter 8
  73. 01:16:03.558                             : en:Chapter 9
复制代码

恍然大悟 Wake.Up.2019.1080p.WEB-DL.DD5.1.H264-FGT 3.02GB-2.png 恍然大悟 Wake.Up.2019.1080p.WEB-DL.DD5.1.H264-FGT 3.02GB-3.png 67375421181230530824_medium.png







VIP会员免费任意下载本站所有资源!---点击开通
回复

使用道具 举报

懒得打字嘛,点击右侧快捷回复 【右侧内容,后台自定义】
您需要登录后才可以回帖 登录 | 立即注册

本版积分规则

QQ|Archiver|手机版|小黑屋| 中国高清网 |网站地图 

GMT+8, 2019-11-15 08:50 , Processed in 0.254693 second(s), 37 queries .

Powered by HDchina X3.4

Copyright 2017-2019©HDchina.All right reserved

返回顶部 联系我们