查看: 10|回复: 0

[恐怖片] 夜海怪兽 Chupacabra.Dark.Seas.2005.1080p.AMZN.WEBRip.DDP2.0.x264-8CLAW 8.89GB

[复制链接]

 成长值: 3140

级别:资源管理组

注册时间
2017-10-20
最后登录
2019-11-11
听众
1
收听
0
主题
86761
蓝光币
61615 枚
贡献
11119 点
发表于 3 天前 | 显示全部楼层 |阅读模式
夜海怪兽 Chupacabra.Dark.Seas.2005.1080p.AMZN.WEBRip.DDP2.0.x264-8CLAW 8.89GB-1.png

译  名 夜海怪兽 / Chupacabra: Dark Seas / 加勒比海怪 / 卓柏卡布拉
片  名 Chupacabra Terror
年  代 2005
产  地 美国
类  别 可骇
语  言 英语
上映日期 2005-01-29(美国)
IMDb评分  3.4/10 from 1276 users
IMDb链接  https://www.imdb.com/title/tt0435617
豆瓣评分 3.6/10 from 234 users
豆瓣链接 https://movie.douban.com/subject/2301926/
片  长 88分钟
导  演 John Shepphird
编  剧 Steve Jankowski / John Shepphird
主  演 约翰·瑞斯-戴维斯 John Rhys-Davies
       迪兰·尼尔 Dylan Neal
       切兰·西蒙斯 Chelan Simmons
       吉安卡罗·埃斯波西托 Giancarlo Esposito
       保拉·肖 Paula Shaw
       大卫米伯尔尼 David Millbern
       Mark Viniello
       Joe Miller
       Matthew R. Anderson
       Luke Darnell
       David St. Pierre
       Garon Michael
       Luciano Olz
       Scott Jolgen
       Jason Pasquale
       Kyle LeMire
       Brandon Klock


标  签 美国 | 可骇 | 惊悚 | 美国电影 | 2005 | 夜海怪兽 | 电影 | 烂片中的战役机

简  介  

  动物学博士帕拿(吉安卡罗.埃斯波西托饰)在加勒比海群岛中抓到了一头传闻中的怪物:卓柏卡布拉,并想以其名垂科学界。他想用由伦道夫船主(约翰.卫趣斯.德卫斯饰)批示的邮轮摄政女王号把它偷运返国,但在途中这头怪物却破笼而出,并处处杀戮船员和乘客。水兵特种军队被派往这艘船上收服这头怪物。但终极船主伦道夫和他的女儿詹妮、联邦法律官兰斯汤普森不能不深入虎穴来改变败局.....
  1. Video
  2. ID                                       : 1
  3. Format                                   : AVC
  4. Format/Info                              : Advanced Video Codec
  5. Format profile                           : High@L4
  6. Format settings                          : CABAC / 4 Ref Frames
  7. Format settings, CABAC                   : Yes
  8. Format settings, Reference frames        : 4 frames
  9. Codec ID                                 : V_MPEG4/ISO/AVC
  10. Duration                                 : 1 h 28 min
  11. Bit rate                                 : 14.2 Mb/s
  12. Width                                    : 1 920 pixels
  13. Height                                   : 1 080 pixels
  14. Display aspect ratio                     : 16:9
  15. Frame rate mode                          : Constant
  16. Frame rate                               : 23.976 (24000/1001) FPS
  17. Color space                              : YUV
  18. Chroma subsampling                       : 4:2:0
  19. Bit depth                                : 8 bits
  20. Scan type                                : Progressive
  21. Bits/(Pixel*Frame)                       : 0.286
  22. Stream size                              : 8.75 GiB (98%)
  23. Default                                  : Yes
  24. Forced                                   : No
  25. Color range                              : Limited
  26. Color primaries                          : BT.709
  27. Transfer characteristics                 : BT.709
  28. Matrix coefficients                      : BT.709

  29. Audio
  30. ID                                       : 2
  31. Format                                   : E-AC-3
  32. Format/Info                              : Enhanced AC-3
  33. Commercial name                          : Dolby Digital Plus
  34. Codec ID                                 : A_EAC3
  35. Duration                                 : 1 h 28 min
  36. Bit rate mode                            : Constant
  37. Bit rate                                 : 224 kb/s
  38. Channel(s)                               : 2 channels
  39. Channel layout                           : L R
  40. Sampling rate                            : 48.0 kHz
  41. Frame rate                               : 31.250 FPS (1536 SPF)
  42. Compression mode                         : Lossy
  43. Stream size                              : 141 MiB (2%)
  44. Title                                    : English
  45. Language                                 : English
  46. Service kind                             : Complete Main
  47. Default                                  : Yes
  48. Forced                                   : No
复制代码

夜海怪兽 Chupacabra.Dark.Seas.2005.1080p.AMZN.WEBRip.DDP2.0.x264-8CLAW 8.89GB-2.png 夜海怪兽 Chupacabra.Dark.Seas.2005.1080p.AMZN.WEBRip.DDP2.0.x264-8CLAW 8.89GB-3.png 夜海怪兽 Chupacabra.Dark.Seas.2005.1080p.AMZN.WEBRip.DDP2.0.x264-8CLAW 8.89GB-4.png






VIP会员免费任意下载本站所有资源!---点击开通
回复

使用道具 举报

懒得打字嘛,点击右侧快捷回复 【右侧内容,后台自定义】
您需要登录后才可以回帖 登录 | 立即注册

本版积分规则

QQ|Archiver|手机版|小黑屋| 中国高清网 |网站地图 

GMT+8, 2019-11-13 17:36 , Processed in 21.646640 second(s), 37 queries .

Powered by HDchina X3.4

Copyright 2017-2019©HDchina.All right reserved

返回顶部 联系我们