查看: 6|回复: 0

[科幻片] 机器人弗雷迪 F.R.E.D.I.2018.1080p.WEBRip.X264-INFLATE 4.28GB

[复制链接]

 成长值: 3140

级别:资源管理组

注册时间
2017-10-20
最后登录
2019-11-11
听众
1
收听
0
主题
86761
蓝光币
61611 枚
贡献
11119 点
发表于 3 天前 | 显示全部楼层 |阅读模式
MV5BZDkxZDFiZmItOWQyOS00NzljLTlmMzQtNDkwMmZjN2M4ZGQwXkEyXkFqcGdeQXVyMDc1MjE0MA@@.jpg

译  名 机械人弗雷迪 / FREDI
片  名 F.R.E.D.I.
年  代 2017
产  地 美国
类  别 科幻 / 家庭
语  言 英语
上映日期 2018-05-03(美国)
IMDb评分  5.1/10 from 680 users
IMDb链接  https://www.imdb.com/title/tt6146590
豆瓣评分 0/10 from 0 users
豆瓣链接 https://movie.douban.com/subject/27134452/
片  长 89分钟
导  演 肖恩·欧森 Sean Olson
编  剧 Garrett Brawith / Kat Olson
主  演 胡凯莉 Kelly Hu
       安古斯·麦克菲登 Angus Macfadyen
       泰勒·克里斯托弗 Tyler Christopher
       克里斯蒂娜·考克斯 Christina Cox
       特夏斯·巴特尔 Texas Battle
       哈维·吉兰 Harvey Guillen
       坎迪斯·欣克尔 Candyce Hinkle
       Lucius Hoyos
       Reid Miller
       Casimere Jollette
       Christian Beckman
       Dale Gibson


简  介  

  An intelligent, lovable robot known as "F.R.E.D.I." is stolen from a secret research facility by the projects lead scientist. The robot is found by a 15 year old teenager, James. Soon the two begin to communicate and create a bond in which F.R.E.D.I. learns about teenage life and James learns about some new values.
  1. Video
  2. ID                                       : 1
  3. Format                                   : AVC
  4. Format/Info                              : Advanced Video Codec
  5. Format profile                           : High@L4
  6. Format settings                          : CABAC / 5 Ref Frames
  7. Format settings, CABAC                   : Yes
  8. Format settings, Reference frames        : 5 frames
  9. Codec ID                                 : V_MPEG4/ISO/AVC
  10. Duration                                 : 1 h 29 min
  11. Bit rate                                 : 6 196 kb/s
  12. Width                                    : 1 920 pixels
  13. Height                                   : 816 pixels
  14. Display aspect ratio                     : 2.35:1
  15. Frame rate mode                          : Constant
  16. Frame rate                               : 23.976 (24000/1001) FPS
  17. Color space                              : YUV
  18. Chroma subsampling                       : 4:2:0
  19. Bit depth                                : 8 bits
  20. Scan type                                : Progressive
  21. Bits/(Pixel*Frame)                       : 0.165
  22. Stream size                              : 3.87 GiB (91%)
  23. Writing library                          : x264 core 157 r2935 545de2f
  24. Encoding settings                        : cabac=1 / ref=5 / deblock=1:-3:-3 / analyse=0x3:0x113 / me=hex / subme=8 / psy=1 / psy_rd=1.00:0.00 / mixed_ref=1 / me_range=16 / chroma_me=1 / trellis=2 / 8x8dct=1 / cqm=0 / deadzone=21,11 / fast_pskip=1 / chroma_qp_offset=-2 / threads=12 / lookahead_threads=2 / sliced_threads=0 / nr=0 / decimate=1 / interlaced=0 / bluray_compat=0 / constrained_intra=0 / bframes=3 / b_pyramid=2 / b_adapt=1 / b_bias=0 / direct=3 / weightb=1 / open_gop=0 / weightp=2 / keyint=250 / keyint_min=23 / scenecut=40 / intra_refresh=0 / rc_lookahead=50 / rc=crf / mbtree=1 / crf=17.0 / qcomp=0.60 / qpmin=0 / qpmax=69 / qpstep=4 / ip_ratio=1.40 / aq=1:1.00
  25. Language                                 : English
  26. Default                                  : Yes
  27. Forced                                   : No

  28. Audio
  29. ID                                       : 2
  30. Format                                   : E-AC-3
  31. Format/Info                              : Enhanced AC-3
  32. Commercial name                          : Dolby Digital Plus
  33. Codec ID                                 : A_EAC3
  34. Duration                                 : 1 h 29 min
  35. Bit rate mode                            : Constant
  36. Bit rate                                 : 640 kb/s
  37. Channel(s)                               : 6 channels
  38. Channel layout                           : L R C LFE Ls Rs
  39. Sampling rate                            : 48.0 kHz
  40. Frame rate                               : 31.250 FPS (1536 SPF)
  41. Compression mode                         : Lossy
  42. Stream size                              : 410 MiB (9%)
  43. Title                                    : English [Original]
  44. Language                                 : English
  45. Service kind                             : Complete Main
  46. Default                                  : Yes
  47. Forced                                   : No

  48. Text #1
  49. ID                                       : 3
  50. Format                                   : UTF-8
  51. Codec ID                                 : S_TEXT/UTF8
  52. Codec ID/Info                            : UTF-8 Plain Text
  53. Duration                                 : 1 h 29 min
  54. Bit rate                                 : 68 b/s
  55. Count of elements                        : 1473
  56. Stream size                              : 44.9 KiB (0%)
  57. Title                                    : English
  58. Language                                 : English
  59. Default                                  : No
  60. Forced                                   : No

  61. Text #2
  62. ID                                       : 4
  63. Format                                   : UTF-8
  64. Codec ID                                 : S_TEXT/UTF8
  65. Codec ID/Info                            : UTF-8 Plain Text
  66. Duration                                 : 1 h 27 min
  67. Bit rate                                 : 55 b/s
  68. Count of elements                        : 1367
  69. Stream size                              : 35.5 KiB (0%)
  70. Title                                    : German
  71. Language                                 : German
  72. Default                                  : No
  73. Forced                                   : No

  74. Text #3
  75. ID                                       : 5
  76. Format                                   : UTF-8
  77. Codec ID                                 : S_TEXT/UTF8
  78. Codec ID/Info                            : UTF-8 Plain Text
  79. Duration                                 : 1 h 27 min
  80. Bit rate                                 : 51 b/s
  81. Count of elements                        : 1301
  82. Stream size                              : 33.5 KiB (0%)
  83. Title                                    : Dutch
  84. Language                                 : Dutch
  85. Default                                  : No
  86. Forced                                   : No

  87. Text #4
  88. ID                                       : 6
  89. Format                                   : UTF-8
  90. Codec ID                                 : S_TEXT/UTF8
  91. Codec ID/Info                            : UTF-8 Plain Text
  92. Duration                                 : 1 h 27 min
  93. Bit rate                                 : 57 b/s
  94. Count of elements                        : 1405
  95. Stream size                              : 37.3 KiB (0%)
  96. Title                                    : Danish
  97. Language                                 : Danish
  98. Default                                  : No
  99. Forced                                   : No

  100. Text #5
  101. ID                                       : 7
  102. Format                                   : UTF-8
  103. Codec ID                                 : S_TEXT/UTF8
  104. Codec ID/Info                            : UTF-8 Plain Text
  105. Duration                                 : 1 h 27 min
  106. Bit rate                                 : 51 b/s
  107. Count of elements                        : 1391
  108. Stream size                              : 33.1 KiB (0%)
  109. Title                                    : Norwegian
  110. Language                                 : Norwegian
  111. Default                                  : No
  112. Forced                                   : No

  113. Text #6
  114. ID                                       : 8
  115. Format                                   : UTF-8
  116. Codec ID                                 : S_TEXT/UTF8
  117. Codec ID/Info                            : UTF-8 Plain Text
  118. Duration                                 : 1 h 27 min
  119. Bit rate                                 : 54 b/s
  120. Count of elements                        : 1299
  121. Stream size                              : 35.0 KiB (0%)
  122. Title                                    : Portuguese
  123. Language                                 : Portuguese
  124. Default                                  : No
  125. Forced                                   : No

  126. Text #7
  127. ID                                       : 9
  128. Format                                   : UTF-8
  129. Codec ID                                 : S_TEXT/UTF8
  130. Codec ID/Info                            : UTF-8 Plain Text
  131. Duration                                 : 1 h 27 min
  132. Bit rate                                 : 56 b/s
  133. Count of elements                        : 1403
  134. Stream size                              : 36.2 KiB (0%)
  135. Title                                    : Brazilian Portuguese
  136. Language                                 : Portuguese
  137. Default                                  : No
  138. Forced                                   : No

  139. Text #8
  140. ID                                       : 10
  141. Format                                   : UTF-8
  142. Codec ID                                 : S_TEXT/UTF8
  143. Codec ID/Info                            : UTF-8 Plain Text
  144. Duration                                 : 1 h 27 min
  145. Bit rate                                 : 46 b/s
  146. Count of elements                        : 1354
  147. Stream size                              : 29.8 KiB (0%)
  148. Title                                    : Polish
  149. Language                                 : Polish
  150. Default                                  : No
  151. Forced                                   : No

  152. Text #9
  153. ID                                       : 11
  154. Format                                   : UTF-8
  155. Codec ID                                 : S_TEXT/UTF8
  156. Codec ID/Info                            : UTF-8 Plain Text
  157. Duration                                 : 1 h 27 min
  158. Bit rate                                 : 52 b/s
  159. Count of elements                        : 1356
  160. Stream size                              : 33.6 KiB (0%)
  161. Title                                    : European Spanish
  162. Language                                 : Spanish
  163. Default                                  : No
  164. Forced                                   : No

  165. Text #10
  166. ID                                       : 12
  167. Format                                   : UTF-8
  168. Codec ID                                 : S_TEXT/UTF8
  169. Codec ID/Info                            : UTF-8 Plain Text
  170. Duration                                 : 1 h 27 min
  171. Bit rate                                 : 82 b/s
  172. Count of elements                        : 1351
  173. Stream size                              : 52.8 KiB (0%)
  174. Title                                    : Greek
  175. Language                                 : Greek
  176. Default                                  : No
  177. Forced                                   : No

  178. Text #11
  179. ID                                       : 13
  180. Format                                   : UTF-8
  181. Codec ID                                 : S_TEXT/UTF8
  182. Codec ID/Info                            : UTF-8 Plain Text
  183. Duration                                 : 1 h 27 min
  184. Bit rate                                 : 57 b/s
  185. Count of elements                        : 1285
  186. Stream size                              : 36.9 KiB (0%)
  187. Title                                    : Spanish
  188. Language                                 : Spanish
  189. Default                                  : No
  190. Forced                                   : No

  191. Text #12
  192. ID                                       : 14
  193. Format                                   : UTF-8
  194. Codec ID                                 : S_TEXT/UTF8
  195. Codec ID/Info                            : UTF-8 Plain Text
  196. Duration                                 : 1 h 27 min
  197. Bit rate                                 : 59 b/s
  198. Count of elements                        : 1408
  199. Stream size                              : 38.5 KiB (0%)
  200. Title                                    : Swedish
  201. Language                                 : Swedish
  202. Default                                  : No
  203. Forced                                   : No

  204. Text #13
  205. ID                                       : 15
  206. Format                                   : UTF-8
  207. Codec ID                                 : S_TEXT/UTF8
  208. Codec ID/Info                            : UTF-8 Plain Text
  209. Duration                                 : 1 h 27 min
  210. Bit rate                                 : 48 b/s
  211. Count of elements                        : 1340
  212. Stream size                              : 31.3 KiB (0%)
  213. Title                                    : Italian
  214. Language                                 : Italian
  215. Default                                  : No
  216. Forced                                   : No

  217. Text #14
  218. ID                                       : 16
  219. Format                                   : UTF-8
  220. Codec ID                                 : S_TEXT/UTF8
  221. Codec ID/Info                            : UTF-8 Plain Text
  222. Duration                                 : 1 h 28 min
  223. Bit rate                                 : 50 b/s
  224. Count of elements                        : 1324
  225. Stream size                              : 32.9 KiB (0%)
  226. Title                                    : Finnish
  227. Language                                 : Finnish
  228. Default                                  : No
  229. Forced                                   : No

  230. Text #15
  231. ID                                       : 17
  232. Format                                   : UTF-8
  233. Codec ID                                 : S_TEXT/UTF8
  234. Codec ID/Info                            : UTF-8 Plain Text
  235. Duration                                 : 1 h 27 min
  236. Bit rate                                 : 58 b/s
  237. Count of elements                        : 1386
  238. Stream size                              : 37.7 KiB (0%)
  239. Title                                    : French
  240. Language                                 : French
  241. Default                                  : No
  242. Forced                                   : No

  243. Text #16
  244. ID                                       : 18
  245. Format                                   : UTF-8
  246. Codec ID                                 : S_TEXT/UTF8
  247. Codec ID/Info                            : UTF-8 Plain Text
  248. Duration                                 : 1 h 27 min
  249. Bit rate                                 : 54 b/s
  250. Count of elements                        : 1405
  251. Stream size                              : 35.4 KiB (0%)
  252. Title                                    : Turkish
  253. Language                                 : Turkish
  254. Default                                  : No
  255. Forced                                   : No
复制代码

机械人弗雷迪 F.R.E.D.I.2018.1080p.WEBRip.X264-INFLATE 4.28GB-2.png







VIP会员免费任意下载本站所有资源!---点击开通
回复

使用道具 举报

懒得打字嘛,点击右侧快捷回复 【右侧内容,后台自定义】
您需要登录后才可以回帖 登录 | 立即注册

本版积分规则

QQ|Archiver|手机版|小黑屋| 中国高清网 |网站地图 

GMT+8, 2019-11-13 17:03 , Processed in 30.484243 second(s), 37 queries .

Powered by HDchina X3.4

Copyright 2017-2019©HDchina.All right reserved

返回顶部 联系我们