查看: 6|回复: 0

[剧情片] 支离破碎 Pretty.Broken.2018.1080p.WEBRip.x264-RARBG 2.02GB

[复制链接]

 成长值: 3160

级别:资源管理组

注册时间
2017-10-20
最后登录
2019-11-11
听众
1
收听
0
主题
86761
蓝光币
61861 枚
贡献
11119 点
发表于 5 天前 | 显示全部楼层 |阅读模式
支离破裂 Pretty.Broken.2018.1080p.WEBRip.x264-RARBG 2.02GB-1.png

译  名 支离破裂 / Free for All / 美丽终结
片  名 Pretty Broken
年  代 2018
产  地 美国
类  别 剧情 / 笑剧
语  言 英语
上映日期 2018-05-01(美国)
IMDb评分  6.4/10 from 594 users
IMDb链接  http://www.imdb.com/title/tt3661570
豆瓣评分 0/10 from 0 users
豆瓣链接 https://movie.douban.com/subject/30479916/
片  长 103分钟
导  演 Brett Eichenberger
编  剧 Jill Remensnyder
主  演 Jillian Clare
       泰勒·克里斯托弗 Tyler Christopher
       斯塔西·爱德华兹 Stacy Edwards
       普雷斯顿·贝里 Preston Bailey
       亚当·钱伯斯 Adam Chambers
       皮特·霍尔登 Peter Holden
       Austin Hillebrecht
       Cosondra Sjostrom
       Jesse Lee Keeter
       特德·鲁尼 Ted Rooney
       托德·罗宾森 Todd Robinson
       Craig Michaelson
       Patrick Kwan
       Robert R. Bertrand
       Echo Bull


简  介  

  Lindsey Lou's father has gone missing on a mountaineering expedition and she's determined to find him, only she's the least qualified for the job.
  1. Video
  2. ID                                       : 1
  3. Format                                   : AVC
  4. Format/Info                              : Advanced Video Codec
  5. Format profile                           : High@L4
  6. Format settings                          : CABAC / 4 Ref Frames
  7. Format settings, CABAC                   : Yes
  8. Format settings, Reference frames        : 4 frames
  9. Codec ID                                 : avc1
  10. Codec ID/Info                            : Advanced Video Coding
  11. Duration                                 : 1 h 46 min
  12. Bit rate                                 : 2 500 kb/s
  13. Width                                    : 1 920 pixels
  14. Height                                   : 1 080 pixels
  15. Display aspect ratio                     : 16:9
  16. Frame rate mode                          : Constant
  17. Frame rate                               : 23.976 (23976/1000) FPS
  18. Color space                              : YUV
  19. Chroma subsampling                       : 4:2:0
  20. Bit depth                                : 8 bits
  21. Scan type                                : Progressive
  22. Bits/(Pixel*Frame)                       : 0.050
  23. Stream size                              : 1.85 GiB (92%)
  24. Writing library                          : x264 core 152 r2851M ba24899
  25. Encoding settings                        : cabac=1 / ref=4 / deblock=1:-1:-1 / analyse=0x3:0x113 / me=umh / subme=9 / psy=1 / psy_rd=1.00:0.15 / mixed_ref=1 / me_range=24 / chroma_me=1 / trellis=2 / 8x8dct=1 / cqm=0 / deadzone=21,11 / fast_pskip=1 / chroma_qp_offset=-3 / threads=16 / lookahead_threads=4 / sliced_threads=0 / nr=0 / decimate=1 / interlaced=0 / bluray_compat=0 / constrained_intra=0 / bframes=3 / b_pyramid=2 / b_adapt=2 / b_bias=0 / direct=3 / weightb=1 / open_gop=0 / weightp=2 / keyint=250 / keyint_min=25 / scenecut=40 / intra_refresh=0 / rc_lookahead=50 / rc=2pass / mbtree=1 / bitrate=2500 / ratetol=1.0 / qcomp=0.60 / qpmin=0 / qpmax=69 / qpstep=4 / cplxblur=20.0 / qblur=0.5 / vbv_maxrate=31250 / vbv_bufsize=31250 / nal_hrd=none / filler=0 / ip_ratio=1.40 / aq=3:1.00
  26. Encoded date                             : UTC 2019-11-08 14:05:58
  27. Tagged date                              : UTC 2019-11-08 14:05:58
  28. Codec configuration box                  : avcC

  29. Audio
  30. ID                                       : 2
  31. Format                                   : AAC LC
  32. Format/Info                              : Advanced Audio Codec Low Complexity
  33. Codec ID                                 : mp4a-40-2
  34. Duration                                 : 1 h 46 min
  35. Duration_LastFrame                       : -11 ms
  36. Bit rate mode                            : Constant
  37. Bit rate                                 : 224 kb/s
  38. Channel(s)                               : 6 channels
  39. Channel layout                           : C L R Ls Rs LFE
  40. Sampling rate                            : 48.0 kHz
  41. Frame rate                               : 46.875 FPS (1024 SPF)
  42. Compression mode                         : Lossy
  43. Stream size                              : 170 MiB (8%)
  44. Language                                 : English
  45. Default                                  : Yes
  46. Alternate group                          : 1
  47. Encoded date                             : UTC 2019-11-08 14:05:58
  48. Tagged date                              : UTC 2019-11-08 14:05:58
复制代码

182926ofuefj1ugfyfk91j.png 支离破裂 Pretty.Broken.2018.1080p.WEBRip.x264-RARBG 2.02GB-3.png 支离破裂 Pretty.Broken.2018.1080p.WEBRip.x264-RARBG 2.02GB-4.png







VIP会员免费任意下载本站所有资源!---点击开通
回复

使用道具 举报

懒得打字嘛,点击右侧快捷回复 【右侧内容,后台自定义】
您需要登录后才可以回帖 登录 | 立即注册

本版积分规则

QQ|Archiver|手机版|小黑屋| 中国高清网 |网站地图 

GMT+8, 2019-11-15 11:02 , Processed in 0.240011 second(s), 37 queries .

Powered by HDchina X3.4

Copyright 2017-2019©HDchina.All right reserved

返回顶部 联系我们