查看: 66|回复: 1

[恐怖片] 剥皮女魔 Skinner.1993.720p.BluRay.x264-SPOOKS 3.28GB

[复制链接]

 成长值: 3230

级别:资源管理组

注册时间
2017-10-20
最后登录
2019-11-21
听众
1
收听
0
主题
87390
蓝光币
63614 枚
贡献
11749 点
发表于 2019-11-10 18:24:38 | 显示全部楼层 |阅读模式
剥皮女魔 Skinner.1993.720p.BluRay.x264-SPOOKS 3.28GB-1.png 1 S( A+ ]* K  M- `7 P$ o; p' k
: N4 Q) E& Z$ r' ?
译  名 剥皮女魔5 |6 f7 ?7 {2 w3 V) z- a' \
片  名 Skinner
" o2 _$ n# |# Z# n; X2 N+ n& \年  代 1993" d) R( d% ?2 F8 ?* U! [7 H1 h& w
产  地 美国
+ I0 q6 T& H* p类  别 可骇
. P1 |4 M: L# B: `! P( F3 A语  言 英语
6 \; R, f. ~/ z, {. D上映日期 1995-07-12( b( k- {6 ^# P4 e0 ]5 ~
IMDb评分  5.0/10 from 500 users
( T* B7 ]5 O0 qIMDb链接  http://www.imdb.com/title/tt0114466- @1 ~  |- L+ L0 Z
豆瓣评分 0/10 from 0 users! k+ J& b9 \3 n$ L7 Q- {3 Z$ g5 E
豆瓣链接 https://movie.douban.com/subject/1298775/  X' S% m" m- I0 O6 `5 b" Y0 |
片  长 90分钟
  A# g& ~. z( m导  演 Ivan Nagy (I)
. V2 Q( O" P" b# W编  剧 Paul Hart-Wilden
/ t) s! O' N4 S4 G主  演 Traci Lords
1 S2 B) _+ B4 p' k, X$ L       Richard SchiffDavid2 A$ r4 K0 U: p4 a5 _$ P8 N
       Ted Raimi
7 h' S% J( H+ ~+ d* c7 P$ @" S0 {7 l; a. N' H

1 j: c8 _5 d" v& S标  签 可骇 | 血腥 | 变态 | 剥皮女魔 | 杀戮 | 美国电影 | VCD | 1
* y9 j0 l6 Q9 c* c( H% a& D8 K. F2 M8 L4 ?4 r
简  介  
$ A+ u" l9 i8 u7 E* D$ Q& x1 B; T# l9 U& e
  海蒂被一残暴的神经病患丹尼斯毁容,他专门在城市里的街道及河滨猎取不知情的妓女,海蒂一心复仇,无法计齐截次又一次地失利。正当另一位女子凯莉被丹尼斯抓走之际,海蒂及凯莉的丈夫杰夫实时在一间烧毁的仓库找到了他们,就在丹尼斯预备切割凯莉时,海蒂牺牲了自己...。
% [# e" f( {& k4 H0 ^/ Z& N% L4 E) Y
  1. Video* ~0 N3 U# X- j& D6 H2 D
  2. ID                                       : 1( y% ^! }7 S) `; J6 i2 m4 X# j
  3. Format                                   : AVC
    4 |2 }- [& o. s; Z% z
  4. Format/Info                              : Advanced Video Codec
    $ V4 g% w% v" a" b9 t1 P9 F
  5. Format profile                           : High@L4
    $ S# S$ o, n) e: n/ v
  6. Format settings                          : CABAC / 9 Ref Frames
    - r; }8 L2 b% X
  7. Format settings, CABAC                   : Yes  T: m2 t2 G  a5 y% D2 C
  8. Format settings, Reference frames        : 9 frames( }  ~( Y0 W7 B9 a/ Y' z8 }) d
  9. Codec ID                                 : V_MPEG4/ISO/AVC
    + d8 ?% ~+ G$ O+ r, y& {+ u( N2 ?7 n
  10. Duration                                 : 1 h 28 min1 Y: D4 t' r0 F2 s( @) v- g
  11. Bit rate                                 : 4 756 kb/s3 j' j4 z) z" ?' a# J3 B
  12. Width                                    : 1 280 pixels" i+ b1 P+ I. J( {. W# s+ J
  13. Height                                   : 720 pixels+ P/ x( w& W# u- V5 g- q$ V
  14. Display aspect ratio                     : 16:9
    1 ^! S0 Z& G& W! G# y6 @
  15. Frame rate mode                          : Constant
    1 F* @: R9 S& `( X1 D0 a- M
  16. Frame rate                               : 23.976 (24000/1001) FPS
    ! F3 O" {4 h  V
  17. Color space                              : YUV9 T: ~, K  g6 H: x, j
  18. Chroma subsampling                       : 4:2:0+ j7 S1 d( J& N. Y- M
  19. Bit depth                                : 8 bits1 X$ t) E7 `* k+ i/ H; }9 Q$ Z
  20. Scan type                                : Progressive
    7 c5 Z- x% s4 g! R
  21. Bits/(Pixel*Frame)                       : 0.215
    ) x, g- L7 j) G' x" Z0 J
  22. Stream size                              : 2.93 GiB (89%)
    + V0 g+ z3 f0 y+ a$ I& I3 O
  23. Writing library                          : x264 core 158 r2988 7817004
    * ?/ y2 n3 U, Z: h' q* e
  24. Encoding settings                        : cabac=1 / ref=9 / deblock=1:-3:-3 / analyse=0x3:0x133 / me=umh / subme=9 / psy=1 / psy_rd=1.00:0.00 / mixed_ref=1 / me_range=24 / chroma_me=1 / trellis=1 / 8x8dct=1 / cqm=0 / deadzone=21,11 / fast_pskip=0 / chroma_qp_offset=-2 / threads=22 / lookahead_threads=3 / sliced_threads=0 / nr=0 / decimate=1 / interlaced=0 / bluray_compat=0 / constrained_intra=0 / bframes=8 / b_pyramid=2 / b_adapt=2 / b_bias=0 / direct=3 / weightb=1 / open_gop=0 / weightp=2 / keyint=250 / keyint_min=23 / scenecut=40 / intra_refresh=0 / rc_lookahead=60 / rc=2pass / mbtree=1 / bitrate=4756 / ratetol=1.0 / qcomp=0.60 / qpmin=0 / qpmax=69 / qpstep=4 / cplxblur=20.0 / qblur=0.5 / vbv_maxrate=62500 / vbv_bufsize=78125 / nal_hrd=none / filler=0 / ip_ratio=1.40 / aq=1:1.000 ?/ w3 m0 J" @) t
  25. Default                                  : Yes
    ; F9 [6 T7 F; N; p* I# u/ x
  26. Forced                                   : No4 h7 f& @( t) s

  27. - E0 L! T! o* _( {: |; q
  28. Audio
    9 V# J2 R# r8 @1 m
  29. ID                                       : 2
    $ y; ]7 U6 s% F: C
  30. Format                                   : FLAC- C6 g; q  \0 g& b" m, u7 S8 `/ U: g
  31. Format/Info                              : Free Lossless Audio Codec
    , v; Z7 m* L( K
  32. Codec ID                                 : A_FLAC
    + P+ E8 W# V7 A: G
  33. Duration                                 : 1 h 28 min, Q& E* K9 h8 ]  {! X# v: o2 r7 z
  34. Bit rate mode                            : Variable
    , ~+ u, |, J0 g1 d$ H, l) E8 n
  35. Bit rate                                 : 556 kb/s# p8 ~) l4 w, Y& w  C
  36. Channel(s)                               : 2 channels
    + }# y& \: X) p1 g3 G4 l' a" ?) I' F
  37. Channel layout                           : L R
      S' ?" }  M6 {3 R7 w& H
  38. Sampling rate                            : 48.0 kHz1 w# \) G  m) S6 Y
  39. Frame rate                               : 10.417 FPS (4608 SPF)
    # O& h5 w2 A% A% |
  40. Bit depth                                : 16 bits( h9 N' z2 y0 ]& ~9 w5 i/ N
  41. Compression mode                         : Lossless
    ) f; g; i5 m% {5 Y8 q- r+ H7 \/ E
  42. Stream size                              : 351 MiB (10%)/ y% x- U) m# d' [- @
  43. Writing library                          : Lavf58.29.100, _  }+ \! `9 `$ T
  44. Language                                 : English
    0 O! _& J- a! `# j. t
  45. Default                                  : Yes" B. _4 s; r; S8 }+ O
  46. Forced                                   : No5 e. b4 o, e4 c! r; s3 k

  47. 7 J% p& f- B/ y6 @0 k+ ^- h7 E
  48. Menu
    : a, @: l( y+ ~6 G: |* `
  49. 00:00:00.000                             : en:Chapter 01
      l$ x: a; d5 \1 U' T8 T# l. u  o
  50. 00:11:20.430                             : en:Chapter 02
    ' e5 j  Z4 Y5 `6 |, d5 I" d
  51. 00:23:50.387                             : en:Chapter 03; W* V+ Z% @1 K% |( H" J3 A  Z6 w/ F
  52. 00:37:53.062                             : en:Chapter 04! M; f: ]& O8 V0 }1 e1 v+ {
  53. 00:54:25.971                             : en:Chapter 05
    - y+ c' \/ R4 M1 Q) {0 L$ ?5 `
  54. 01:06:55.220                             : en:Chapter 06
    1 f1 y( k1 a/ x2 s4 i  U: M+ y
  55. 01:16:21.076                             : en:Chapter 074 Z8 I8 _3 j7 M8 J/ i
  56. 01:25:29.124                             : en:Chapter 08
复制代码
; _- A" g: p, s
剥皮女魔 Skinner.1993.720p.BluRay.x264-SPOOKS 3.28GB-2.png
6 I& t2 F+ O1 ^9 k3 g# a
8 i! V& S$ w4 ^
* X. p* C: J& R5 b( i" ?! R7 t$ B4 H* ^- s. R6 K3 F

% k! b6 D- P. Z' `0 Q5 J
) t% K* X: f$ g8 R* X" W; Y: V& H0 i# N/ o7 ?

2 x% U: X3 v1 l$ s- o) V* {
VIP会员免费任意下载本站所有资源!---点击开通
回复

使用道具 举报

级别:一举成名 Lv.7

注册时间
2019-4-24
最后登录
2019-11-21
听众
13
收听
0
主题
0
蓝光币
197 枚
贡献
0 点
发表于 2019-11-13 10:32:03 | 显示全部楼层
楼主发贴辛苦了,谢谢楼主分享!我觉得中国高清电影网是注册对了!
VIP会员免费任意下载本站所有资源!---点击开通
回复

使用道具 举报

懒得打字嘛,点击右侧快捷回复 【右侧内容,后台自定义】
您需要登录后才可以回帖 登录 | 立即注册

本版积分规则

QQ|Archiver|手机版|小黑屋| 中国高清网 |网站地图

GMT+8, 2019-11-22 03:28 , Processed in 0.230386 second(s), 37 queries .

Powered by HDchina X3.4

Copyright 2017-2019©HDchina.All right reserved

返回顶部 联系我们