查看: 23|回复: 0

[喜剧片] 冬季浪漫故事/下雪吧 Let.It.Snow.2019.1080p.NF.WEBRip.DDP5.1.x264-iKA 2.78GB

[复制链接]

 成长值: 3140

级别:资源管理组

注册时间
2017-10-20
最后登录
2019-11-11
听众
1
收听
0
主题
86761
蓝光币
61615 枚
贡献
11119 点
发表于 5 天前 | 显示全部楼层 |阅读模式
冬季浪漫故事/下雪吧 Let.It.Snow.2019.1080p.NF.WEBRip.DDP5.1.x264-iKA 2.78GB-1.png

译  名 冬季浪漫故事 / 下雪吧 / 大雪纷飞 / 雪恋三部曲(台)
片  名 Let It Snow
年  代 2019
产  地 美国
类  别 笑剧 / 恋爱
语  言 英语
上映日期 2019-11-08(美国)
IMDb链接  https://www.imdb.com/title/tt1950235
豆瓣评分 0/10 from 0 users
豆瓣链接 https://movie.douban.com/subject/6538867/
导  演 卢克·斯奈林 Luke Snellin
编  剧 维多利亚·斯特劳斯 Victoria Strouse / 凯·加农 Kay Cannon / 约翰·格林 John Green / Maureen Johnson / Lauren Myracle
主  演 琪兰·席普卡 Kiernan Shipka
       伊莎贝拉·莫奈 Isabela Moner
       琼·库萨克 Joan Cusack
       奥德娅·拉什 Odeya Rush
       雅各布·巴特朗 Jacob Batalon
       沙梅克·摩尔 Shameik Moore
       米切尔·霍普 Mitchell Hope
       迈尔斯·罗宾斯 Miles Robbins
       丽芙·休森 Liv Hewson
       安娜·阿卡娜 Anna Akana
       马修·诺斯卡 Matthew Noszka
       乔恩·尚帕涅 Jon Champagne
       杰米·尚帕涅 Jamie Champagne
       Mason Gooding
       Victor Rivers
       Genevieve DeGraves
       Andrea de Oliveira
       Eric Weinthal
       Scott Hurst


标  签 Netflix | 青春 | 笑剧 | 美国 | 恋爱 | 电影 | 2019 | 琪兰·席普卡

简  介  

  按照约翰·葛林的畅销书改编,故事布景设定在圣诞前夜的一场百年一遇的狂风雪中,几个高中生发现了意想不到的机遇,也发现了考验他们友谊、恋爱生活和对未来理想的复杂身分。
  1. Video
  2. ID                                       : 1
  3. Format                                   : AVC
  4. Format/Info                              : Advanced Video Codec
  5. Format profile                           : High@L4
  6. Format settings                          : CABAC / 3 Ref Frames
  7. Format settings, CABAC                   : Yes
  8. Format settings, Reference frames        : 3 frames
  9. Codec ID                                 : V_MPEG4/ISO/AVC
  10. Duration                                 : 1 h 33 min
  11. Bit rate mode                            : Variable
  12. Bit rate                                 : 3 650 kb/s
  13. Maximum bit rate                         : 5 475 kb/s
  14. Width                                    : 1 920 pixels
  15. Height                                   : 1 080 pixels
  16. Display aspect ratio                     : 16:9
  17. Frame rate mode                          : Constant
  18. Frame rate                               : 24.000 FPS
  19. Color space                              : YUV
  20. Chroma subsampling                       : 4:2:0
  21. Bit depth                                : 8 bits
  22. Scan type                                : Progressive
  23. Bits/(Pixel*Frame)                       : 0.073
  24. Stream size                              : 2.36 GiB (85%)
  25. Writing library                          : x264 core 148 r2715 7e75228
  26. Encoding settings                        : cabac=1 / ref=3 / deblock=1:0:0 / analyse=0x1:0x111 / me=umh / subme=10 / psy=1 / psy_rd=1.00:0.00 / mixed_ref=1 / me_range=24 / chroma_me=1 / trellis=2 / 8x8dct=0 / cqm=0 / deadzone=21,11 / fast_pskip=1 / chroma_qp_offset=-2 / threads=8 / lookahead_threads=1 / sliced_threads=0 / nr=0 / decimate=1 / interlaced=0 / bluray_compat=0 / stitchable=1 / constrained_intra=0 / bframes=2 / b_pyramid=0 / b_adapt=2 / b_bias=0 / direct=3 / weightb=1 / open_gop=0 / weightp=2 / keyint=250 / keyint_min=24 / scenecut=0 / intra_refresh=0 / rc_lookahead=48 / rc=2pass / mbtree=1 / bitrate=3650 / ratetol=1.0 / qcomp=0.50 / qpmin=6 / qpmax=51 / qpstep=4 / cplxblur=20.0 / qblur=0.5 / vbv_maxrate=5475 / vbv_bufsize=7300 / nal_hrd=vbr / filler=0 / ip_ratio=1.40 / aq=1:1.00
  27. Default                                  : Yes
  28. Forced                                   : No

  29. Audio
  30. ID                                       : 2
  31. Format                                   : E-AC-3
  32. Format/Info                              : Enhanced AC-3
  33. Commercial name                          : Dolby Digital Plus
  34. Codec ID                                 : A_EAC3
  35. Duration                                 : 1 h 33 min
  36. Bit rate mode                            : Constant
  37. Bit rate                                 : 640 kb/s
  38. Channel(s)                               : 6 channels
  39. Channel layout                           : L R C LFE Ls Rs
  40. Sampling rate                            : 48.0 kHz
  41. Frame rate                               : 31.250 FPS (1536 SPF)
  42. Compression mode                         : Lossy
  43. Stream size                              : 428 MiB (15%)
  44. Language                                 : English
  45. Service kind                             : Complete Main
  46. Default                                  : Yes
  47. Forced                                   : No

  48. Text #1
  49. ID                                       : 3
  50. Format                                   : UTF-8
  51. Codec ID                                 : S_TEXT/UTF8
  52. Codec ID/Info                            : UTF-8 Plain Text
  53. Duration                                 : 1 h 32 min
  54. Bit rate                                 : 96 b/s
  55. Count of elements                        : 1325
  56. Stream size                              : 65.3 KiB (0%)
  57. Language                                 : Arabic
  58. Default                                  : No
  59. Forced                                   : No

  60. Text #2
  61. ID                                       : 4
  62. Format                                   : UTF-8
  63. Codec ID                                 : S_TEXT/UTF8
  64. Codec ID/Info                            : UTF-8 Plain Text
  65. Duration                                 : 1 h 32 min
  66. Bit rate                                 : 48 b/s
  67. Count of elements                        : 1319
  68. Stream size                              : 33.0 KiB (0%)
  69. Language                                 : Czech
  70. Default                                  : No
  71. Forced                                   : No

  72. Text #3
  73. ID                                       : 5
  74. Format                                   : UTF-8
  75. Codec ID                                 : S_TEXT/UTF8
  76. Codec ID/Info                            : UTF-8 Plain Text
  77. Duration                                 : 1 h 32 min
  78. Bit rate                                 : 54 b/s
  79. Count of elements                        : 999
  80. Stream size                              : 37.0 KiB (0%)
  81. Language                                 : Danish
  82. Default                                  : No
  83. Forced                                   : No

  84. Text #4
  85. ID                                       : 6
  86. Format                                   : UTF-8
  87. Codec ID                                 : S_TEXT/UTF8
  88. Codec ID/Info                            : UTF-8 Plain Text
  89. Duration                                 : 1 h 32 min
  90. Bit rate                                 : 55 b/s
  91. Count of elements                        : 1195
  92. Stream size                              : 37.8 KiB (0%)
  93. Language                                 : German
  94. Default                                  : No
  95. Forced                                   : No

  96. Text #5
  97. ID                                       : 7
  98. Format                                   : UTF-8
  99. Codec ID                                 : S_TEXT/UTF8
  100. Codec ID/Info                            : UTF-8 Plain Text
  101. Duration                                 : 1 h 32 min
  102. Bit rate                                 : 88 b/s
  103. Count of elements                        : 1339
  104. Stream size                              : 59.6 KiB (0%)
  105. Language                                 : Greek
  106. Default                                  : No
  107. Forced                                   : No

  108. Text #6
  109. ID                                       : 8
  110. Format                                   : UTF-8
  111. Codec ID                                 : S_TEXT/UTF8
  112. Codec ID/Info                            : UTF-8 Plain Text
  113. Duration                                 : 1 h 32 min
  114. Bit rate                                 : 71 b/s
  115. Count of elements                        : 1643
  116. Stream size                              : 48.2 KiB (0%)
  117. Title                                    : SDH
  118. Language                                 : English
  119. Default                                  : No
  120. Forced                                   : No

  121. Text #7
  122. ID                                       : 9
  123. Format                                   : UTF-8
  124. Codec ID                                 : S_TEXT/UTF8
  125. Codec ID/Info                            : UTF-8 Plain Text
  126. Duration                                 : 1 h 32 min
  127. Bit rate                                 : 52 b/s
  128. Count of elements                        : 1255
  129. Stream size                              : 35.2 KiB (0%)
  130. Language                                 : Spanish
  131. Default                                  : No
  132. Forced                                   : No

  133. Text #8
  134. ID                                       : 10
  135. Format                                   : UTF-8
  136. Codec ID                                 : S_TEXT/UTF8
  137. Codec ID/Info                            : UTF-8 Plain Text
  138. Duration                                 : 1 h 32 min
  139. Bit rate                                 : 49 b/s
  140. Count of elements                        : 1313
  141. Stream size                              : 33.7 KiB (0%)
  142. Title                                    : European
  143. Language                                 : Spanish
  144. Default                                  : No
  145. Forced                                   : No

  146. Text #9
  147. ID                                       : 11
  148. Format                                   : UTF-8
  149. Codec ID                                 : S_TEXT/UTF8
  150. Codec ID/Info                            : UTF-8 Plain Text
  151. Duration                                 : 1 h 32 min
  152. Bit rate                                 : 47 b/s
  153. Count of elements                        : 1274
  154. Stream size                              : 31.8 KiB (0%)
  155. Language                                 : Finnish
  156. Default                                  : No
  157. Forced                                   : No

  158. Text #10
  159. ID                                       : 12
  160. Format                                   : UTF-8
  161. Codec ID                                 : S_TEXT/UTF8
  162. Codec ID/Info                            : UTF-8 Plain Text
  163. Duration                                 : 1 h 32 min
  164. Bit rate                                 : 49 b/s
  165. Count of elements                        : 1233
  166. Stream size                              : 33.4 KiB (0%)
  167. Language                                 : French
  168. Default                                  : No
  169. Forced                                   : No

  170. Text #11
  171. ID                                       : 13
  172. Format                                   : UTF-8
  173. Codec ID                                 : S_TEXT/UTF8
  174. Codec ID/Info                            : UTF-8 Plain Text
  175. Duration                                 : 1 h 32 min
  176. Bit rate                                 : 97 b/s
  177. Count of elements                        : 1292
  178. Stream size                              : 65.7 KiB (0%)
  179. Language                                 : Hebrew
  180. Default                                  : No
  181. Forced                                   : No

  182. Text #12
  183. ID                                       : 14
  184. Format                                   : UTF-8
  185. Codec ID                                 : S_TEXT/UTF8
  186. Codec ID/Info                            : UTF-8 Plain Text
  187. Duration                                 : 1 h 32 min
  188. Bit rate                                 : 162 b/s
  189. Count of elements                        : 1348
  190. Stream size                              : 110 KiB (0%)
  191. Language                                 : Hindi
  192. Default                                  : No
  193. Forced                                   : No

  194. Text #13
  195. ID                                       : 15
  196. Format                                   : UTF-8
  197. Codec ID                                 : S_TEXT/UTF8
  198. Codec ID/Info                            : UTF-8 Plain Text
  199. Duration                                 : 1 h 32 min
  200. Bit rate                                 : 52 b/s
  201. Count of elements                        : 1001
  202. Stream size                              : 35.6 KiB (0%)
  203. Language                                 : Hungarian
  204. Default                                  : No
  205. Forced                                   : No

  206. Text #14
  207. ID                                       : 16
  208. Format                                   : UTF-8
  209. Codec ID                                 : S_TEXT/UTF8
  210. Codec ID/Info                            : UTF-8 Plain Text
  211. Duration                                 : 1 h 32 min
  212. Bit rate                                 : 52 b/s
  213. Count of elements                        : 1254
  214. Stream size                              : 35.6 KiB (0%)
  215. Language                                 : Indonesian
  216. Default                                  : No
  217. Forced                                   : No

  218. Text #15
  219. ID                                       : 17
  220. Format                                   : UTF-8
  221. Codec ID                                 : S_TEXT/UTF8
  222. Codec ID/Info                            : UTF-8 Plain Text
  223. Duration                                 : 1 h 32 min
  224. Bit rate                                 : 50 b/s
  225. Count of elements                        : 1212
  226. Stream size                              : 34.2 KiB (0%)
  227. Language                                 : Italian
  228. Default                                  : No
  229. Forced                                   : No

  230. Text #16
  231. ID                                       : 18
  232. Format                                   : UTF-8
  233. Codec ID                                 : S_TEXT/UTF8
  234. Codec ID/Info                            : UTF-8 Plain Text
  235. Duration                                 : 1 h 32 min
  236. Bit rate                                 : 53 b/s
  237. Count of elements                        : 1282
  238. Stream size                              : 36.0 KiB (0%)
  239. Language                                 : Japanese
  240. Default                                  : No
  241. Forced                                   : No

  242. Text #17
  243. ID                                       : 19
  244. Format                                   : UTF-8
  245. Codec ID                                 : S_TEXT/UTF8
  246. Codec ID/Info                            : UTF-8 Plain Text
  247. Duration                                 : 1 h 32 min
  248. Bit rate                                 : 70 b/s
  249. Count of elements                        : 1350
  250. Stream size                              : 47.7 KiB (0%)
  251. Language                                 : Korean
  252. Default                                  : No
  253. Forced                                   : No

  254. Text #18
  255. ID                                       : 20
  256. Format                                   : UTF-8
  257. Codec ID                                 : S_TEXT/UTF8
  258. Codec ID/Info                            : UTF-8 Plain Text
  259. Duration                                 : 1 h 32 min
  260. Bit rate                                 : 51 b/s
  261. Count of elements                        : 1128
  262. Stream size                              : 35.0 KiB (0%)
  263. Language                                 : Norwegian
  264. Default                                  : No
  265. Forced                                   : No

  266. Text #19
  267. ID                                       : 21
  268. Format                                   : UTF-8
  269. Codec ID                                 : S_TEXT/UTF8
  270. Codec ID/Info                            : UTF-8 Plain Text
  271. Duration                                 : 1 h 32 min
  272. Bit rate                                 : 45 b/s
  273. Count of elements                        : 1039
  274. Stream size                              : 30.9 KiB (0%)
  275. Language                                 : Dutch
  276. Default                                  : No
  277. Forced                                   : No

  278. Text #20
  279. ID                                       : 22
  280. Format                                   : UTF-8
  281. Codec ID                                 : S_TEXT/UTF8
  282. Codec ID/Info                            : UTF-8 Plain Text
  283. Duration                                 : 1 h 32 min
  284. Bit rate                                 : 46 b/s
  285. Count of elements                        : 1295
  286. Stream size                              : 31.3 KiB (0%)
  287. Language                                 : Polish
  288. Default                                  : No
  289. Forced                                   : No

  290. Text #21
  291. ID                                       : 23
  292. Format                                   : UTF-8
  293. Codec ID                                 : S_TEXT/UTF8
  294. Codec ID/Info                            : UTF-8 Plain Text
  295. Duration                                 : 1 h 32 min
  296. Bit rate                                 : 55 b/s
  297. Count of elements                        : 1318
  298. Stream size                              : 37.5 KiB (0%)
  299. Language                                 : Portuguese
  300. Default                                  : No
  301. Forced                                   : No

  302. Text #22
  303. ID                                       : 24
  304. Format                                   : UTF-8
  305. Codec ID                                 : S_TEXT/UTF8
  306. Codec ID/Info                            : UTF-8 Plain Text
  307. Duration                                 : 1 h 32 min
  308. Bit rate                                 : 55 b/s
  309. Count of elements                        : 1355
  310. Stream size                              : 37.6 KiB (0%)
  311. Title                                    : Brazilian
  312. Language                                 : Portuguese
  313. Default                                  : No
  314. Forced                                   : No

  315. Text #23
  316. ID                                       : 25
  317. Format                                   : UTF-8
  318. Codec ID                                 : S_TEXT/UTF8
  319. Codec ID/Info                            : UTF-8 Plain Text
  320. Duration                                 : 1 h 32 min
  321. Bit rate                                 : 59 b/s
  322. Count of elements                        : 1268
  323. Stream size                              : 39.9 KiB (0%)
  324. Language                                 : Romanian
  325. Default                                  : No
  326. Forced                                   : No

  327. Text #24
  328. ID                                       : 26
  329. Format                                   : UTF-8
  330. Codec ID                                 : S_TEXT/UTF8
  331. Codec ID/Info                            : UTF-8 Plain Text
  332. Duration                                 : 1 h 32 min
  333. Bit rate                                 : 81 b/s
  334. Count of elements                        : 1313
  335. Stream size                              : 55.1 KiB (0%)
  336. Language                                 : Russian
  337. Default                                  : No
  338. Forced                                   : No

  339. Text #25
  340. ID                                       : 27
  341. Format                                   : UTF-8
  342. Codec ID                                 : S_TEXT/UTF8
  343. Codec ID/Info                            : UTF-8 Plain Text
  344. Duration                                 : 1 h 32 min
  345. Bit rate                                 : 51 b/s
  346. Count of elements                        : 1138
  347. Stream size                              : 35.0 KiB (0%)
  348. Language                                 : Swedish
  349. Default                                  : No
  350. Forced                                   : No

  351. Text #26
  352. ID                                       : 28
  353. Format                                   : UTF-8
  354. Codec ID                                 : S_TEXT/UTF8
  355. Codec ID/Info                            : UTF-8 Plain Text
  356. Duration                                 : 1 h 32 min
  357. Bit rate                                 : 149 b/s
  358. Count of elements                        : 1351
  359. Stream size                              : 101 KiB (0%)
  360. Language                                 : Thai
  361. Default                                  : No
  362. Forced                                   : No

  363. Text #27
  364. ID                                       : 29
  365. Format                                   : UTF-8
  366. Codec ID                                 : S_TEXT/UTF8
  367. Codec ID/Info                            : UTF-8 Plain Text
  368. Duration                                 : 1 h 32 min
  369. Bit rate                                 : 53 b/s
  370. Count of elements                        : 1153
  371. Stream size                              : 36.0 KiB (0%)
  372. Language                                 : Turkish
  373. Default                                  : No
  374. Forced                                   : No

  375. Text #28
  376. ID                                       : 30
  377. Format                                   : UTF-8
  378. Codec ID                                 : S_TEXT/UTF8
  379. Codec ID/Info                            : UTF-8 Plain Text
  380. Duration                                 : 1 h 32 min
  381. Bit rate                                 : 69 b/s
  382. Count of elements                        : 1318
  383. Stream size                              : 46.7 KiB (0%)
  384. Language                                 : Vietnamese
  385. Default                                  : No
  386. Forced                                   : No

  387. Text #29
  388. ID                                       : 31
  389. Format                                   : UTF-8
  390. Codec ID                                 : S_TEXT/UTF8
  391. Codec ID/Info                            : UTF-8 Plain Text
  392. Duration                                 : 1 h 32 min
  393. Bit rate                                 : 61 b/s
  394. Count of elements                        : 1473
  395. Stream size                              : 41.9 KiB (0%)
  396. Title                                    : Simplified
  397. Language                                 : Chinese
  398. Default                                  : No
  399. Forced                                   : No

  400. Text #30
  401. ID                                       : 32
  402. Format                                   : UTF-8
  403. Codec ID                                 : S_TEXT/UTF8
  404. Codec ID/Info                            : UTF-8 Plain Text
  405. Duration                                 : 1 h 32 min
  406. Bit rate                                 : 56 b/s
  407. Count of elements                        : 1374
  408. Stream size                              : 37.9 KiB (0%)
  409. Title                                    : Traditional
  410. Language                                 : Chinese
  411. Default                                  : No
  412. Forced                                   : No
复制代码

冬季浪漫故事/下雪吧 Let.It.Snow.2019.1080p.NF.WEBRip.DDP5.1.x264-iKA 2.78GB-2.png 冬季浪漫故事/下雪吧 Let.It.Snow.2019.1080p.NF.WEBRip.DDP5.1.x264-iKA 2.78GB-3.png 冬季浪漫故事/下雪吧 Let.It.Snow.2019.1080p.NF.WEBRip.DDP5.1.x264-iKA 2.78GB-4.png







VIP会员免费任意下载本站所有资源!---点击开通
回复

使用道具 举报

懒得打字嘛,点击右侧快捷回复 【右侧内容,后台自定义】
您需要登录后才可以回帖 登录 | 立即注册

本版积分规则

QQ|Archiver|手机版|小黑屋| 中国高清网 |网站地图 

GMT+8, 2019-11-13 17:53 , Processed in 25.204554 second(s), 37 queries .

Powered by HDchina X3.4

Copyright 2017-2019©HDchina.All right reserved

返回顶部 联系我们