查看: 21|回复: 0

[动作片] 天堂海岸 Paradise.Beach.2019.DUBBED.1080p.NF.WEBRip.DDP5.1.x264-CM 3.45GB

[复制链接]

 成长值: 3160

级别:资源管理组

注册时间
2017-10-20
最后登录
2019-11-15
听众
1
收听
0
主题
86769
蓝光币
61946 枚
贡献
11127 点
发表于 7 天前 | 显示全部楼层 |阅读模式
天堂海岸 Paradise.Beach.2019.DUBBED.1080p.NF.WEBRip.DDP5.1.x264-CM 3.45GB-1.png

译  名 天堂海岸
片  名 Paradise beach
年  代 2018
产  地 法国
类  别 行动 / 惊悚
语  言 法语
上映日期 2019-02-20(法国)
IMDb评分  4.7/10 from 80 users
IMDb链接  https://www.imdb.com/title/tt7511008
豆瓣评分 0/10 from 0 users
豆瓣链接 https://movie.douban.com/subject/30173637/
片  长 93分钟
导  演 格扎维埃·杜兰热 Xavier Durringer
编  剧 格扎维埃·杜兰热 Xavier Durringer
主  演 雨果·贝克 Hugo Becker
       哈勃·孔黛 Hubert Koundé
       塞米·鲍亚吉拉 Sami Bouajila
       梅拉妮·杜泰 Mélanie Doutey
       陶菲克·杰拉巴 Tewfik Jallab
       Flore Bonaventura
       布鲁诺·洛普斯 Kool Shen
       Seth Gueko


标  签 剧情

简  介  

  从牢狱里出来后,梅迪筹算清算旧账。但首先,他必须与他的帮派规复联系,而那群人正落拓地住在一处优美的泰国海滨度假村。
  1. Video
  2. ID                                       : 1
  3. Format                                   : AVC
  4. Format/Info                              : Advanced Video Codec
  5. Format profile                           : High@L4
  6. Format settings                          : CABAC / 3 Ref Frames
  7. Format settings, CABAC                   : Yes
  8. Format settings, Reference frames        : 3 frames
  9. Codec ID                                 : V_MPEG4/ISO/AVC
  10. Duration                                 : 1 h 34 min
  11. Bit rate mode                            : Variable
  12. Bit rate                                 : 4 640 kb/s
  13. Maximum bit rate                         : 6 960 kb/s
  14. Width                                    : 1 920 pixels
  15. Height                                   : 1 080 pixels
  16. Display aspect ratio                     : 16:9
  17. Frame rate mode                          : Constant
  18. Frame rate                               : 24.000 FPS
  19. Color space                              : YUV
  20. Chroma subsampling                       : 4:2:0
  21. Bit depth                                : 8 bits
  22. Scan type                                : Progressive
  23. Bits/(Pixel*Frame)                       : 0.093
  24. Stream size                              : 3.03 GiB (88%)
  25. Writing library                          : x264 core 148 r2715 7e75228
  26. Encoding settings                        : cabac=1 / ref=3 / deblock=1:0:0 / analyse=0x1:0x111 / me=umh / subme=10 / psy=1 / psy_rd=1.00:0.00 / mixed_ref=1 / me_range=24 / chroma_me=1 / trellis=2 / 8x8dct=0 / cqm=0 / deadzone=21,11 / fast_pskip=1 / chroma_qp_offset=-2 / threads=6 / lookahead_threads=1 / sliced_threads=0 / nr=0 / decimate=1 / interlaced=0 / bluray_compat=0 / stitchable=1 / constrained_intra=0 / bframes=2 / b_pyramid=0 / b_adapt=2 / b_bias=0 / direct=3 / weightb=1 / open_gop=0 / weightp=2 / keyint=250 / keyint_min=24 / scenecut=0 / intra_refresh=0 / rc_lookahead=48 / rc=2pass / mbtree=1 / bitrate=4640 / ratetol=1.0 / qcomp=0.50 / qpmin=6 / qpmax=51 / qpstep=4 / cplxblur=20.0 / qblur=0.5 / vbv_maxrate=6960 / vbv_bufsize=9280 / nal_hrd=vbr / filler=0 / ip_ratio=1.40 / aq=1:1.00
  27. Default                                  : Yes
  28. Forced                                   : No

  29. Audio
  30. ID                                       : 2
  31. Format                                   : E-AC-3
  32. Format/Info                              : Enhanced AC-3
  33. Commercial name                          : Dolby Digital Plus
  34. Codec ID                                 : A_EAC3
  35. Duration                                 : 1 h 34 min
  36. Bit rate mode                            : Constant
  37. Bit rate                                 : 640 kb/s
  38. Channel(s)                               : 6 channels
  39. Channel layout                           : L R C LFE Ls Rs
  40. Sampling rate                            : 48.0 kHz
  41. Frame rate                               : 31.250 FPS (1536 SPF)
  42. Compression mode                         : Lossy
  43. Stream size                              : 431 MiB (12%)
  44. Title                                    : English
  45. Language                                 : English
  46. Service kind                             : Complete Main
  47. Default                                  : Yes
  48. Forced                                   : No

  49. Text #1
  50. ID                                       : 3
  51. Format                                   : UTF-8
  52. Codec ID                                 : S_TEXT/UTF8
  53. Codec ID/Info                            : UTF-8 Plain Text
  54. Duration                                 : 1 h 27 min
  55. Bit rate                                 : 37 b/s
  56. Count of elements                        : 869
  57. Stream size                              : 23.8 KiB (0%)
  58. Title                                    : English
  59. Language                                 : English
  60. Default                                  : Yes
  61. Forced                                   : No

  62. Text #2
  63. ID                                       : 4
  64. Format                                   : UTF-8
  65. Codec ID                                 : S_TEXT/UTF8
  66. Codec ID/Info                            : UTF-8 Plain Text
  67. Duration                                 : 1 h 28 min
  68. Bit rate                                 : 46 b/s
  69. Count of elements                        : 1051
  70. Stream size                              : 30.2 KiB (0%)
  71. Title                                    : Castilian
  72. Language                                 : Spanish
  73. Default                                  : No
  74. Forced                                   : No

  75. Text #3
  76. ID                                       : 5
  77. Format                                   : UTF-8
  78. Codec ID                                 : S_TEXT/UTF8
  79. Codec ID/Info                            : UTF-8 Plain Text
  80. Duration                                 : 1 h 28 min
  81. Bit rate                                 : 45 b/s
  82. Count of elements                        : 1052
  83. Stream size                              : 29.6 KiB (0%)
  84. Title                                    : Spanish
  85. Language                                 : Spanish
  86. Default                                  : No
  87. Forced                                   : No

  88. Text #4
  89. ID                                       : 6
  90. Format                                   : UTF-8
  91. Codec ID                                 : S_TEXT/UTF8
  92. Codec ID/Info                            : UTF-8 Plain Text
  93. Duration                                 : 1 h 24 min
  94. Bit rate                                 : 8 b/s
  95. Count of elements                        : 173
  96. Stream size                              : 5.24 KiB (0%)
  97. Title                                    : French [Forced]
  98. Language                                 : French
  99. Default                                  : No
  100. Forced                                   : Yes

  101. Text #5
  102. ID                                       : 7
  103. Format                                   : UTF-8
  104. Codec ID                                 : S_TEXT/UTF8
  105. Codec ID/Info                            : UTF-8 Plain Text
  106. Duration                                 : 1 h 32 min
  107. Bit rate                                 : 66 b/s
  108. Count of elements                        : 1295
  109. Stream size                              : 45.3 KiB (0%)
  110. Title                                    : French
  111. Language                                 : French
  112. Default                                  : No
  113. Forced                                   : No

  114. Text #6
  115. ID                                       : 8
  116. Format                                   : UTF-8
  117. Codec ID                                 : S_TEXT/UTF8
  118. Codec ID/Info                            : UTF-8 Plain Text
  119. Duration                                 : 1 h 28 min
  120. Bit rate                                 : 46 b/s
  121. Count of elements                        : 1037
  122. Stream size                              : 30.1 KiB (0%)
  123. Title                                    : German
  124. Language                                 : German
  125. Default                                  : No
  126. Forced                                   : No

  127. Text #7
  128. ID                                       : 9
  129. Format                                   : UTF-8
  130. Codec ID                                 : S_TEXT/UTF8
  131. Codec ID/Info                            : UTF-8 Plain Text
  132. Duration                                 : 1 h 28 min
  133. Bit rate                                 : 45 b/s
  134. Count of elements                        : 1046
  135. Stream size                              : 29.2 KiB (0%)
  136. Title                                    : Italian
  137. Language                                 : Italian
  138. Default                                  : No
  139. Forced                                   : No

  140. Text #8
  141. ID                                       : 10
  142. Format                                   : UTF-8
  143. Codec ID                                 : S_TEXT/UTF8
  144. Codec ID/Info                            : UTF-8 Plain Text
  145. Duration                                 : 1 h 28 min
  146. Bit rate                                 : 44 b/s
  147. Count of elements                        : 1051
  148. Stream size                              : 28.9 KiB (0%)
  149. Title                                    : Portuguese
  150. Language                                 : Portuguese
  151. Default                                  : No
  152. Forced                                   : No

  153. Text #9
  154. ID                                       : 11
  155. Format                                   : UTF-8
  156. Codec ID                                 : S_TEXT/UTF8
  157. Codec ID/Info                            : UTF-8 Plain Text
  158. Duration                                 : 1 h 28 min
  159. Bit rate                                 : 41 b/s
  160. Count of elements                        : 1049
  161. Stream size                              : 27.0 KiB (0%)
  162. Title                                    : Brazilian Portuguese
  163. Language                                 : Portuguese
  164. Default                                  : No
  165. Forced                                   : No

  166. Text #10
  167. ID                                       : 12
  168. Format                                   : UTF-8
  169. Codec ID                                 : S_TEXT/UTF8
  170. Codec ID/Info                            : UTF-8 Plain Text
  171. Duration                                 : 1 h 28 min
  172. Bit rate                                 : 38 b/s
  173. Count of elements                        : 1046
  174. Stream size                              : 24.9 KiB (0%)
  175. Title                                    : Polish
  176. Language                                 : Polish
  177. Default                                  : No
  178. Forced                                   : No

  179. Text #11
  180. ID                                       : 13
  181. Format                                   : UTF-8
  182. Codec ID                                 : S_TEXT/UTF8
  183. Codec ID/Info                            : UTF-8 Plain Text
  184. Duration                                 : 1 h 28 min
  185. Bit rate                                 : 46 b/s
  186. Count of elements                        : 1050
  187. Stream size                              : 30.1 KiB (0%)
  188. Title                                    : Turkish
  189. Language                                 : Turkish
  190. Default                                  : No
  191. Forced                                   : No

  192. Text #12
  193. ID                                       : 14
  194. Format                                   : UTF-8
  195. Codec ID                                 : S_TEXT/UTF8
  196. Codec ID/Info                            : UTF-8 Plain Text
  197. Duration                                 : 1 h 28 min
  198. Bit rate                                 : 44 b/s
  199. Count of elements                        : 1047
  200. Stream size                              : 28.4 KiB (0%)
  201. Title                                    : Swedish
  202. Language                                 : Swedish
  203. Default                                  : No
  204. Forced                                   : No

  205. Text #13
  206. ID                                       : 15
  207. Format                                   : UTF-8
  208. Codec ID                                 : S_TEXT/UTF8
  209. Codec ID/Info                            : UTF-8 Plain Text
  210. Duration                                 : 1 h 28 min
  211. Bit rate                                 : 44 b/s
  212. Count of elements                        : 1044
  213. Stream size                              : 28.7 KiB (0%)
  214. Title                                    : Danish
  215. Language                                 : Danish
  216. Default                                  : No
  217. Forced                                   : No

  218. Text #14
  219. ID                                       : 16
  220. Format                                   : UTF-8
  221. Codec ID                                 : S_TEXT/UTF8
  222. Codec ID/Info                            : UTF-8 Plain Text
  223. Duration                                 : 1 h 28 min
  224. Bit rate                                 : 43 b/s
  225. Count of elements                        : 1045
  226. Stream size                              : 28.3 KiB (0%)
  227. Title                                    : Finnish
  228. Language                                 : Finnish
  229. Default                                  : No
  230. Forced                                   : No

  231. Text #15
  232. ID                                       : 17
  233. Format                                   : UTF-8
  234. Codec ID                                 : S_TEXT/UTF8
  235. Codec ID/Info                            : UTF-8 Plain Text
  236. Duration                                 : 1 h 28 min
  237. Bit rate                                 : 42 b/s
  238. Count of elements                        : 1028
  239. Stream size                              : 27.4 KiB (0%)
  240. Title                                    : Dutch
  241. Language                                 : Dutch
  242. Default                                  : No
  243. Forced                                   : No

  244. Text #16
  245. ID                                       : 18
  246. Format                                   : UTF-8
  247. Codec ID                                 : S_TEXT/UTF8
  248. Codec ID/Info                            : UTF-8 Plain Text
  249. Duration                                 : 1 h 28 min
  250. Bit rate                                 : 44 b/s
  251. Count of elements                        : 1044
  252. Stream size                              : 28.6 KiB (0%)
  253. Title                                    : Norwegian
  254. Language                                 : Norwegian
  255. Default                                  : No
  256. Forced                                   : No

  257. Text #17
  258. ID                                       : 19
  259. Format                                   : UTF-8
  260. Codec ID                                 : S_TEXT/UTF8
  261. Codec ID/Info                            : UTF-8 Plain Text
  262. Duration                                 : 1 h 28 min
  263. Bit rate                                 : 70 b/s
  264. Count of elements                        : 1052
  265. Stream size                              : 45.5 KiB (0%)
  266. Title                                    : Russian
  267. Language                                 : Russian
  268. Default                                  : No
  269. Forced                                   : No

  270. Text #18
  271. ID                                       : 20
  272. Format                                   : UTF-8
  273. Codec ID                                 : S_TEXT/UTF8
  274. Codec ID/Info                            : UTF-8 Plain Text
  275. Duration                                 : 1 h 28 min
  276. Bit rate                                 : 42 b/s
  277. Count of elements                        : 1042
  278. Stream size                              : 27.3 KiB (0%)
  279. Title                                    : Hungarian
  280. Language                                 : Hungarian
  281. Default                                  : No
  282. Forced                                   : No

  283. Text #19
  284. ID                                       : 21
  285. Format                                   : UTF-8
  286. Codec ID                                 : S_TEXT/UTF8
  287. Codec ID/Info                            : UTF-8 Plain Text
  288. Duration                                 : 1 h 28 min
  289. Bit rate                                 : 76 b/s
  290. Count of elements                        : 1050
  291. Stream size                              : 49.7 KiB (0%)
  292. Title                                    : Greek
  293. Language                                 : Greek
  294. Default                                  : No
  295. Forced                                   : No

  296. Text #20
  297. ID                                       : 22
  298. Format                                   : UTF-8
  299. Codec ID                                 : S_TEXT/UTF8
  300. Codec ID/Info                            : UTF-8 Plain Text
  301. Duration                                 : 1 h 28 min
  302. Bit rate                                 : 65 b/s
  303. Count of elements                        : 1053
  304. Stream size                              : 42.4 KiB (0%)
  305. Title                                    : Hebrew
  306. Language                                 : Hebrew
  307. Default                                  : No
  308. Forced                                   : No

  309. Text #21
  310. ID                                       : 23
  311. Format                                   : UTF-8
  312. Codec ID                                 : S_TEXT/UTF8
  313. Codec ID/Info                            : UTF-8 Plain Text
  314. Duration                                 : 1 h 28 min
  315. Bit rate                                 : 72 b/s
  316. Count of elements                        : 1053
  317. Stream size                              : 46.7 KiB (0%)
  318. Title                                    : Arabic
  319. Language                                 : Arabic
  320. Default                                  : No
  321. Forced                                   : No

  322. Text #22
  323. ID                                       : 24
  324. Format                                   : UTF-8
  325. Codec ID                                 : S_TEXT/UTF8
  326. Codec ID/Info                            : UTF-8 Plain Text
  327. Duration                                 : 1 h 28 min
  328. Bit rate                                 : 51 b/s
  329. Count of elements                        : 1047
  330. Stream size                              : 33.1 KiB (0%)
  331. Title                                    : Romanian
  332. Language                                 : Romanian
  333. Default                                  : No
  334. Forced                                   : No

  335. Text #23
  336. ID                                       : 25
  337. Format                                   : UTF-8
  338. Codec ID                                 : S_TEXT/UTF8
  339. Codec ID/Info                            : UTF-8 Plain Text
  340. Duration                                 : 1 h 28 min
  341. Bit rate                                 : 42 b/s
  342. Count of elements                        : 1051
  343. Stream size                              : 27.2 KiB (0%)
  344. Title                                    : Czech
  345. Language                                 : Czech
  346. Default                                  : No
  347. Forced                                   : No

  348. Text #24
  349. ID                                       : 26
  350. Format                                   : UTF-8
  351. Codec ID                                 : S_TEXT/UTF8
  352. Codec ID/Info                            : UTF-8 Plain Text
  353. Duration                                 : 1 h 28 min
  354. Bit rate                                 : 40 b/s
  355. Count of elements                        : 1051
  356. Stream size                              : 26.0 KiB (0%)
  357. Title                                    : Indonesian
  358. Language                                 : Indonesian
  359. Default                                  : No
  360. Forced                                   : No

  361. Text #25
  362. ID                                       : 27
  363. Format                                   : UTF-8
  364. Codec ID                                 : S_TEXT/UTF8
  365. Codec ID/Info                            : UTF-8 Plain Text
  366. Duration                                 : 1 h 28 min
  367. Bit rate                                 : 64 b/s
  368. Count of elements                        : 1052
  369. Stream size                              : 41.7 KiB (0%)
  370. Title                                    : Vietnamese
  371. Language                                 : Vietnamese
  372. Default                                  : No
  373. Forced                                   : No

  374. Text #26
  375. ID                                       : 28
  376. Format                                   : UTF-8
  377. Codec ID                                 : S_TEXT/UTF8
  378. Codec ID/Info                            : UTF-8 Plain Text
  379. Duration                                 : 1 h 28 min
  380. Bit rate                                 : 110 b/s
  381. Count of elements                        : 1010
  382. Stream size                              : 71.2 KiB (0%)
  383. Title                                    : Thai
  384. Language                                 : Thai
  385. Default                                  : No
  386. Forced                                   : No

  387. Text #27
  388. ID                                       : 29
  389. Format                                   : UTF-8
  390. Codec ID                                 : S_TEXT/UTF8
  391. Codec ID/Info                            : UTF-8 Plain Text
  392. Duration                                 : 1 h 28 min
  393. Bit rate                                 : 55 b/s
  394. Count of elements                        : 1053
  395. Stream size                              : 36.1 KiB (0%)
  396. Title                                    : Korean
  397. Language                                 : Korean
  398. Default                                  : No
  399. Forced                                   : No

  400. Text #28
  401. ID                                       : 30
  402. Format                                   : UTF-8
  403. Codec ID                                 : S_TEXT/UTF8
  404. Codec ID/Info                            : UTF-8 Plain Text
  405. Duration                                 : 1 h 28 min
  406. Bit rate                                 : 52 b/s
  407. Count of elements                        : 1053
  408. Stream size                              : 34.1 KiB (0%)
  409. Title                                    : Chinese (Simplified)
  410. Language                                 : Chinese
  411. Default                                  : No
  412. Forced                                   : No

  413. Text #29
  414. ID                                       : 31
  415. Format                                   : UTF-8
  416. Codec ID                                 : S_TEXT/UTF8
  417. Codec ID/Info                            : UTF-8 Plain Text
  418. Duration                                 : 1 h 28 min
  419. Bit rate                                 : 48 b/s
  420. Count of elements                        : 1052
  421. Stream size                              : 31.4 KiB (0%)
  422. Title                                    : Chinese (Traditional)
  423. Language                                 : Chinese
  424. Default                                  : No
  425. Forced                                   : No

  426. Text #30
  427. ID                                       : 32
  428. Format                                   : UTF-8
  429. Codec ID                                 : S_TEXT/UTF8
  430. Codec ID/Info                            : UTF-8 Plain Text
  431. Duration                                 : 1 h 28 min
  432. Bit rate                                 : 44 b/s
  433. Count of elements                        : 1017
  434. Stream size                              : 28.6 KiB (0%)
  435. Title                                    : Japanese
  436. Language                                 : Japanese
  437. Default                                  : No
  438. Forced                                   : No
复制代码

天堂海岸 Paradise.Beach.2019.DUBBED.1080p.NF.WEBRip.DDP5.1.x264-CM 3.45GB-2.png 天堂海岸 Paradise.Beach.2019.DUBBED.1080p.NF.WEBRip.DDP5.1.x264-CM 3.45GB-3.png 天堂海岸 Paradise.Beach.2019.DUBBED.1080p.NF.WEBRip.DDP5.1.x264-CM 3.45GB-4.png







VIP会员免费任意下载本站所有资源!---点击开通
回复

使用道具 举报

懒得打字嘛,点击右侧快捷回复 【右侧内容,后台自定义】
您需要登录后才可以回帖 登录 | 立即注册

本版积分规则

QQ|Archiver|手机版|小黑屋| 中国高清网 |网站地图 

GMT+8, 2019-11-15 20:23 , Processed in 0.299683 second(s), 37 queries .

Powered by HDchina X3.4

Copyright 2017-2019©HDchina.All right reserved

返回顶部 联系我们