查看: 30|回复: 1

[剧情片] 危机:龙潭之战/108悍将 Danger.Close.2019.1080p.AMZN.WEBRip.DDP5.1.x264-NTG 6.20GB

[复制链接]

 成长值: 3160

级别:资源管理组

注册时间
2017-10-20
最后登录
2019-11-11
听众
1
收听
0
主题
86761
蓝光币
61813 枚
贡献
11119 点
发表于 7 天前 | 显示全部楼层 |阅读模式
危机:龙潭之战/108悍将 Danger.Close.2019.1080p.AMZN.WEBRip.DDP5.1.x264-NTG 6.20GB-1.png

译  名 危机:龙潭之战 / 108悍将(台) / Long Tan / 危险逼近 / 很是危险
片  名 Danger Close: The Battle of Long Tan
年  代 2019
产  地 澳大利亚
类  别 剧情 / 行动 / 战争
语  言 英语
上映日期 2019-08-08(澳大利亚)
IMDb评分  8.0/10 from 925 users
IMDb链接  https://www.imdb.com/title/tt0441881
豆瓣评分 0/10 from 0 users
豆瓣链接 https://movie.douban.com/subject/1972738/
片  长 118分钟
导  演 科里夫·斯丹德斯 Kriv Stenders
编  剧 斯图尔特·贝亚蒂耶 Stuart Beattie
主  演 崔维斯·费米尔 Travis Fimmel
       卢克·布雷西 Luke Bracey
       理查德·劳斯伯格 Richard Roxburgh
       丹尼尔·韦伯 Daniel Webber


标  签 战争 | 越战 | 战争片 | 澳大利亚 | 2019 | 电影 | 历史 | 实在事务改编

简  介  

  崔维斯·费米尔、卢克·布雷西、理查德·劳斯伯格([血战钢锯岭])、丹尼尔·韦伯(《赏罚者》)将主演越南战争题材电影[危险逼近](Danger Close,暂译),影片由科里夫·斯丹德斯([红犬历险记])执导。故事布景设定在1966年的越南南部,报告在瓢泼大雨里,澳大利亚与新西兰的兵士与2500名越南兵士对峙。影片将于本月在澳大利亚昆士兰开拍。
  1. Video
  2. ID                                       : 1
  3. Format                                   : AVC
  4. Format/Info                              : Advanced Video Codec
  5. Format profile                           : High@L4
  6. Format settings                          : CABAC / 4 Ref Frames
  7. Format settings, CABAC                   : Yes
  8. Format settings, Reference frames        : 4 frames
  9. Codec ID                                 : V_MPEG4/ISO/AVC
  10. Duration                                 : 1 h 58 min
  11. Bit rate mode                            : Constant
  12. Bit rate                                 : 6 834 kb/s
  13. Nominal bit rate                         : 10 000 kb/s
  14. Width                                    : 1 920 pixels
  15. Height                                   : 800 pixels
  16. Display aspect ratio                     : 2.40:1
  17. Frame rate mode                          : Constant
  18. Frame rate                               : 23.976 (24000/1001) FPS
  19. Color space                              : YUV
  20. Chroma subsampling                       : 4:2:0
  21. Bit depth                                : 8 bits
  22. Scan type                                : Progressive
  23. Bits/(Pixel*Frame)                       : 0.186
  24. Stream size                              : 5.67 GiB (91%)
  25. Default                                  : Yes
  26. Forced                                   : No
  27. Color range                              : Limited
  28. Color primaries                          : BT.709
  29. Transfer characteristics                 : BT.709
  30. Matrix coefficients                      : BT.709

  31. Audio
  32. ID                                       : 2
  33. Format                                   : E-AC-3
  34. Format/Info                              : Enhanced AC-3
  35. Commercial name                          : Dolby Digital Plus
  36. Codec ID                                 : A_EAC3
  37. Duration                                 : 1 h 58 min
  38. Bit rate mode                            : Constant
  39. Bit rate                                 : 640 kb/s
  40. Channel(s)                               : 6 channels
  41. Channel layout                           : L R C LFE Ls Rs
  42. Sampling rate                            : 48.0 kHz
  43. Frame rate                               : 31.250 FPS (1536 SPF)
  44. Compression mode                         : Lossy
  45. Stream size                              : 543 MiB (9%)
  46. Language                                 : English
  47. Service kind                             : Complete Main
  48. Default                                  : Yes
  49. Forced                                   : No

  50. Text #1
  51. ID                                       : 3
  52. Format                                   : UTF-8
  53. Codec ID                                 : S_TEXT/UTF8
  54. Codec ID/Info                            : UTF-8 Plain Text
  55. Duration                                 : 1 h 45 min
  56. Bit rate                                 : 43 b/s
  57. Count of elements                        : 1243
  58. Stream size                              : 33.7 KiB (0%)
  59. Language                                 : English
  60. Default                                  : No
  61. Forced                                   : No

  62. Text #2
  63. ID                                       : 4
  64. Format                                   : UTF-8
  65. Codec ID                                 : S_TEXT/UTF8
  66. Codec ID/Info                            : UTF-8 Plain Text
  67. Duration                                 : 1 h 57 min
  68. Bit rate                                 : 45 b/s
  69. Count of elements                        : 1447
  70. Stream size                              : 39.2 KiB (0%)
  71. Title                                    : SDH
  72. Language                                 : English
  73. Default                                  : No
  74. Forced                                   : No
复制代码

危机:龙潭之战/108悍将 Danger.Close.2019.1080p.AMZN.WEBRip.DDP5.1.x264-NTG 6.20GB-2.png 危机:龙潭之战/108悍将 Danger.Close.2019.1080p.AMZN.WEBRip.DDP5.1.x264-NTG 6.20GB-3.png 危机:龙潭之战/108悍将 Danger.Close.2019.1080p.AMZN.WEBRip.DDP5.1.x264-NTG 6.20GB-4.png







VIP会员免费任意下载本站所有资源!---点击开通
回复

使用道具 举报

级别:初级观众 Lv.1

注册时间
2019-11-14
最后登录
2019-11-14
听众
0
收听
0
主题
0
蓝光币
0 枚
贡献
0 点
发表于 昨天 17:41 | 显示全部楼层
感谢楼主分享
VIP会员免费任意下载本站所有资源!---点击开通
回复

使用道具 举报

懒得打字嘛,点击右侧快捷回复 【右侧内容,后台自定义】
您需要登录后才可以回帖 登录 | 立即注册

本版积分规则

QQ|Archiver|手机版|小黑屋| 中国高清网 |网站地图 

GMT+8, 2019-11-15 08:00 , Processed in 0.252651 second(s), 48 queries .

Powered by HDchina X3.4

Copyright 2017-2019©HDchina.All right reserved

返回顶部 联系我们