查看: 18|回复: 0

[剧情片] 冬季浪漫故事/下雪吧 Let.It.Snow.2019.1080p.NF.WEBRip.DD5.1.x264-FGT 2.78GB

[复制链接]

 成长值: 3160

级别:资源管理组

注册时间
2017-10-20
最后登录
2019-11-11
听众
1
收听
0
主题
86761
蓝光币
61851 枚
贡献
11119 点
发表于 7 天前 | 显示全部楼层 |阅读模式
冬季浪漫故事/下雪吧 Let.It.Snow.2019.1080p.NF.WEBRip.DD5.1.x264-FGT 2.78GB-1.png

译  名 冬季浪漫故事 / 下雪吧 / 大雪纷飞 / 雪恋三部曲(台)
片  名 Let It Snow
年  代 2019
产  地 美国
类  别 笑剧 / 恋爱
语  言 英语
上映日期 2019-11-08(美国)
IMDb链接  https://www.imdb.com/title/tt1950235
豆瓣评分 0/10 from 0 users
豆瓣链接 https://movie.douban.com/subject/6538867/
导  演 卢克·斯奈林 Luke Snellin
编  剧 维多利亚·斯特劳斯 Victoria Strouse / 凯·加农 Kay Cannon / 约翰·格林 John Green / Maureen Johnson / Lauren Myracle
主  演 琪兰·席普卡 Kiernan Shipka
       伊莎贝拉·莫奈 Isabela Moner
       琼·库萨克 Joan Cusack
       奥德娅·拉什 Odeya Rush
       雅各布·巴特朗 Jacob Batalon
       沙梅克·摩尔 Shameik Moore
       米切尔·霍普 Mitchell Hope
       迈尔斯·罗宾斯 Miles Robbins
       丽芙·休森 Liv Hewson
       安娜·阿卡娜 Anna Akana
       马修·诺斯卡 Matthew Noszka
       乔恩·尚帕涅 Jon Champagne
       杰米·尚帕涅 Jamie Champagne
       Mason Gooding
       Victor Rivers
       Genevieve DeGraves
       Andrea de Oliveira
       Eric Weinthal
       Scott Hurst


标  签 Netflix | 青春 | 笑剧 | 美国 | 恋爱 | 电影 | 2019 | 琪兰·席普卡

简  介  

  按照约翰·葛林的畅销书改编,故事布景设定在圣诞前夜的一场百年一遇的狂风雪中,几个高中生发现了意想不到的机遇,也发现了考验他们友谊、恋爱生活和对未来理想的复杂身分。
  1. Video
  2. ID                                       : 1
  3. Format                                   : AVC
  4. Format/Info                              : Advanced Video Codec
  5. Format profile                           : High@L4
  6. Format settings                          : CABAC / 3 Ref Frames
  7. Format settings, CABAC                   : Yes
  8. Format settings, Reference frames        : 3 frames
  9. Codec ID                                 : V_MPEG4/ISO/AVC
  10. Duration                                 : 1 h 33 min
  11. Bit rate mode                            : Variable
  12. Bit rate                                 : 3 650 kb/s
  13. Maximum bit rate                         : 5 475 kb/s
  14. Width                                    : 1 920 pixels
  15. Height                                   : 1 080 pixels
  16. Display aspect ratio                     : 16:9
  17. Frame rate mode                          : Constant
  18. Frame rate                               : 24.000 FPS
  19. Color space                              : YUV
  20. Chroma subsampling                       : 4:2:0
  21. Bit depth                                : 8 bits
  22. Scan type                                : Progressive
  23. Bits/(Pixel*Frame)                       : 0.073
  24. Stream size                              : 2.36 GiB (85%)
  25. Title                                    : Let.It.Snow.2019.1080p.NF.WEBRip.DD5.1.x264-FGT
  26. Writing library                          : x264 core 148 r2715 7e75228
  27. Encoding settings                        : cabac=1 / ref=3 / deblock=1:0:0 / analyse=0x1:0x111 / me=umh / subme=10 / psy=1 / psy_rd=1.00:0.00 / mixed_ref=1 / me_range=24 / chroma_me=1 / trellis=2 / 8x8dct=0 / cqm=0 / deadzone=21,11 / fast_pskip=1 / chroma_qp_offset=-2 / threads=8 / lookahead_threads=1 / sliced_threads=0 / nr=0 / decimate=1 / interlaced=0 / bluray_compat=0 / stitchable=1 / constrained_intra=0 / bframes=2 / b_pyramid=0 / b_adapt=2 / b_bias=0 / direct=3 / weightb=1 / open_gop=0 / weightp=2 / keyint=250 / keyint_min=24 / scenecut=0 / intra_refresh=0 / rc_lookahead=48 / rc=2pass / mbtree=1 / bitrate=3650 / ratetol=1.0 / qcomp=0.50 / qpmin=6 / qpmax=51 / qpstep=4 / cplxblur=20.0 / qblur=0.5 / vbv_maxrate=5475 / vbv_bufsize=7300 / nal_hrd=vbr / filler=0 / ip_ratio=1.40 / aq=1:1.00
  28. Language                                 : English
  29. Default                                  : Yes
  30. Forced                                   : No

  31. Audio
  32. ID                                       : 2
  33. Format                                   : AC-3
  34. Format/Info                              : Audio Coding 3
  35. Commercial name                          : Dolby Digital
  36. Codec ID                                 : A_AC3
  37. Duration                                 : 1 h 33 min
  38. Bit rate mode                            : Constant
  39. Bit rate                                 : 640 kb/s
  40. Channel(s)                               : 6 channels
  41. Channel layout                           : L R C LFE Ls Rs
  42. Sampling rate                            : 48.0 kHz
  43. Frame rate                               : 31.250 FPS (1536 SPF)
  44. Bit depth                                : 16 bits
  45. Compression mode                         : Lossy
  46. Stream size                              : 428 MiB (15%)
  47. Title                                    : Let.It.Snow.2019.1080p.NF.WEBRip.DD5.1.x264-FGT
  48. Language                                 : English
  49. Service kind                             : Complete Main
  50. Default                                  : Yes
  51. Forced                                   : No

  52. Text #1
  53. ID                                       : 3
  54. Format                                   : UTF-8
  55. Codec ID                                 : S_TEXT/UTF8
  56. Codec ID/Info                            : UTF-8 Plain Text
  57. Duration                                 : 1 h 32 min
  58. Bit rate                                 : 71 b/s
  59. Count of elements                        : 1643
  60. Stream size                              : 48.2 KiB (0%)
  61. Title                                    : SDH
  62. Language                                 : English
  63. Default                                  : Yes
  64. Forced                                   : No

  65. Text #2
  66. ID                                       : 4
  67. Format                                   : UTF-8
  68. Codec ID                                 : S_TEXT/UTF8
  69. Codec ID/Info                            : UTF-8 Plain Text
  70. Duration                                 : 1 h 32 min
  71. Bit rate                                 : 96 b/s
  72. Count of elements                        : 1325
  73. Stream size                              : 65.3 KiB (0%)
  74. Language                                 : Arabic
  75. Default                                  : No
  76. Forced                                   : No

  77. Text #3
  78. ID                                       : 5
  79. Format                                   : UTF-8
  80. Codec ID                                 : S_TEXT/UTF8
  81. Codec ID/Info                            : UTF-8 Plain Text
  82. Duration                                 : 1 h 32 min
  83. Bit rate                                 : 48 b/s
  84. Count of elements                        : 1319
  85. Stream size                              : 33.0 KiB (0%)
  86. Language                                 : Czech
  87. Default                                  : No
  88. Forced                                   : No

  89. Text #4
  90. ID                                       : 6
  91. Format                                   : UTF-8
  92. Codec ID                                 : S_TEXT/UTF8
  93. Codec ID/Info                            : UTF-8 Plain Text
  94. Duration                                 : 1 h 32 min
  95. Bit rate                                 : 54 b/s
  96. Count of elements                        : 999
  97. Stream size                              : 37.0 KiB (0%)
  98. Language                                 : Danish
  99. Default                                  : No
  100. Forced                                   : No

  101. Text #5
  102. ID                                       : 7
  103. Format                                   : UTF-8
  104. Codec ID                                 : S_TEXT/UTF8
  105. Codec ID/Info                            : UTF-8 Plain Text
  106. Duration                                 : 1 h 32 min
  107. Bit rate                                 : 55 b/s
  108. Count of elements                        : 1195
  109. Stream size                              : 37.8 KiB (0%)
  110. Language                                 : German
  111. Default                                  : No
  112. Forced                                   : No

  113. Text #6
  114. ID                                       : 8
  115. Format                                   : UTF-8
  116. Codec ID                                 : S_TEXT/UTF8
  117. Codec ID/Info                            : UTF-8 Plain Text
  118. Duration                                 : 1 h 32 min
  119. Bit rate                                 : 88 b/s
  120. Count of elements                        : 1339
  121. Stream size                              : 59.6 KiB (0%)
  122. Language                                 : Greek
  123. Default                                  : No
  124. Forced                                   : No

  125. Text #7
  126. ID                                       : 9
  127. Format                                   : UTF-8
  128. Codec ID                                 : S_TEXT/UTF8
  129. Codec ID/Info                            : UTF-8 Plain Text
  130. Duration                                 : 1 h 32 min
  131. Bit rate                                 : 52 b/s
  132. Count of elements                        : 1255
  133. Stream size                              : 35.2 KiB (0%)
  134. Language                                 : Spanish
  135. Default                                  : No
  136. Forced                                   : No

  137. Text #8
  138. ID                                       : 10
  139. Format                                   : UTF-8
  140. Codec ID                                 : S_TEXT/UTF8
  141. Codec ID/Info                            : UTF-8 Plain Text
  142. Duration                                 : 1 h 32 min
  143. Bit rate                                 : 49 b/s
  144. Count of elements                        : 1313
  145. Stream size                              : 33.7 KiB (0%)
  146. Title                                    : European
  147. Language                                 : Spanish
  148. Default                                  : No
  149. Forced                                   : No

  150. Text #9
  151. ID                                       : 11
  152. Format                                   : UTF-8
  153. Codec ID                                 : S_TEXT/UTF8
  154. Codec ID/Info                            : UTF-8 Plain Text
  155. Duration                                 : 1 h 32 min
  156. Bit rate                                 : 47 b/s
  157. Count of elements                        : 1274
  158. Stream size                              : 31.8 KiB (0%)
  159. Language                                 : Finnish
  160. Default                                  : No
  161. Forced                                   : No

  162. Text #10
  163. ID                                       : 12
  164. Format                                   : UTF-8
  165. Codec ID                                 : S_TEXT/UTF8
  166. Codec ID/Info                            : UTF-8 Plain Text
  167. Duration                                 : 1 h 32 min
  168. Bit rate                                 : 49 b/s
  169. Count of elements                        : 1233
  170. Stream size                              : 33.4 KiB (0%)
  171. Language                                 : French
  172. Default                                  : No
  173. Forced                                   : No

  174. Text #11
  175. ID                                       : 13
  176. Format                                   : UTF-8
  177. Codec ID                                 : S_TEXT/UTF8
  178. Codec ID/Info                            : UTF-8 Plain Text
  179. Duration                                 : 1 h 32 min
  180. Bit rate                                 : 97 b/s
  181. Count of elements                        : 1292
  182. Stream size                              : 65.7 KiB (0%)
  183. Language                                 : Hebrew
  184. Default                                  : No
  185. Forced                                   : No

  186. Text #12
  187. ID                                       : 14
  188. Format                                   : UTF-8
  189. Codec ID                                 : S_TEXT/UTF8
  190. Codec ID/Info                            : UTF-8 Plain Text
  191. Duration                                 : 1 h 32 min
  192. Bit rate                                 : 162 b/s
  193. Count of elements                        : 1348
  194. Stream size                              : 110 KiB (0%)
  195. Language                                 : Hindi
  196. Default                                  : No
  197. Forced                                   : No

  198. Text #13
  199. ID                                       : 15
  200. Format                                   : UTF-8
  201. Codec ID                                 : S_TEXT/UTF8
  202. Codec ID/Info                            : UTF-8 Plain Text
  203. Duration                                 : 1 h 32 min
  204. Bit rate                                 : 52 b/s
  205. Count of elements                        : 1001
  206. Stream size                              : 35.6 KiB (0%)
  207. Language                                 : Hungarian
  208. Default                                  : No
  209. Forced                                   : No

  210. Text #14
  211. ID                                       : 16
  212. Format                                   : UTF-8
  213. Codec ID                                 : S_TEXT/UTF8
  214. Codec ID/Info                            : UTF-8 Plain Text
  215. Duration                                 : 1 h 32 min
  216. Bit rate                                 : 52 b/s
  217. Count of elements                        : 1254
  218. Stream size                              : 35.6 KiB (0%)
  219. Language                                 : Indonesian
  220. Default                                  : No
  221. Forced                                   : No

  222. Text #15
  223. ID                                       : 17
  224. Format                                   : UTF-8
  225. Codec ID                                 : S_TEXT/UTF8
  226. Codec ID/Info                            : UTF-8 Plain Text
  227. Duration                                 : 1 h 32 min
  228. Bit rate                                 : 50 b/s
  229. Count of elements                        : 1212
  230. Stream size                              : 34.2 KiB (0%)
  231. Language                                 : Italian
  232. Default                                  : No
  233. Forced                                   : No

  234. Text #16
  235. ID                                       : 18
  236. Format                                   : UTF-8
  237. Codec ID                                 : S_TEXT/UTF8
  238. Codec ID/Info                            : UTF-8 Plain Text
  239. Duration                                 : 1 h 32 min
  240. Bit rate                                 : 53 b/s
  241. Count of elements                        : 1282
  242. Stream size                              : 36.0 KiB (0%)
  243. Language                                 : Japanese
  244. Default                                  : No
  245. Forced                                   : No

  246. Text #17
  247. ID                                       : 19
  248. Format                                   : UTF-8
  249. Codec ID                                 : S_TEXT/UTF8
  250. Codec ID/Info                            : UTF-8 Plain Text
  251. Duration                                 : 1 h 32 min
  252. Bit rate                                 : 70 b/s
  253. Count of elements                        : 1350
  254. Stream size                              : 47.7 KiB (0%)
  255. Language                                 : Korean
  256. Default                                  : No
  257. Forced                                   : No

  258. Text #18
  259. ID                                       : 20
  260. Format                                   : UTF-8
  261. Codec ID                                 : S_TEXT/UTF8
  262. Codec ID/Info                            : UTF-8 Plain Text
  263. Duration                                 : 1 h 32 min
  264. Bit rate                                 : 51 b/s
  265. Count of elements                        : 1128
  266. Stream size                              : 35.0 KiB (0%)
  267. Language                                 : Norwegian
  268. Default                                  : No
  269. Forced                                   : No

  270. Text #19
  271. ID                                       : 21
  272. Format                                   : UTF-8
  273. Codec ID                                 : S_TEXT/UTF8
  274. Codec ID/Info                            : UTF-8 Plain Text
  275. Duration                                 : 1 h 32 min
  276. Bit rate                                 : 45 b/s
  277. Count of elements                        : 1039
  278. Stream size                              : 30.9 KiB (0%)
  279. Language                                 : Dutch
  280. Default                                  : No
  281. Forced                                   : No

  282. Text #20
  283. ID                                       : 22
  284. Format                                   : UTF-8
  285. Codec ID                                 : S_TEXT/UTF8
  286. Codec ID/Info                            : UTF-8 Plain Text
  287. Duration                                 : 1 h 32 min
  288. Bit rate                                 : 46 b/s
  289. Count of elements                        : 1295
  290. Stream size                              : 31.3 KiB (0%)
  291. Language                                 : Polish
  292. Default                                  : No
  293. Forced                                   : No

  294. Text #21
  295. ID                                       : 23
  296. Format                                   : UTF-8
  297. Codec ID                                 : S_TEXT/UTF8
  298. Codec ID/Info                            : UTF-8 Plain Text
  299. Duration                                 : 1 h 32 min
  300. Bit rate                                 : 55 b/s
  301. Count of elements                        : 1318
  302. Stream size                              : 37.5 KiB (0%)
  303. Language                                 : Portuguese
  304. Default                                  : No
  305. Forced                                   : No

  306. Text #22
  307. ID                                       : 24
  308. Format                                   : UTF-8
  309. Codec ID                                 : S_TEXT/UTF8
  310. Codec ID/Info                            : UTF-8 Plain Text
  311. Duration                                 : 1 h 32 min
  312. Bit rate                                 : 55 b/s
  313. Count of elements                        : 1355
  314. Stream size                              : 37.6 KiB (0%)
  315. Title                                    : Brazilian
  316. Language                                 : Portuguese
  317. Default                                  : No
  318. Forced                                   : No

  319. Text #23
  320. ID                                       : 25
  321. Format                                   : UTF-8
  322. Codec ID                                 : S_TEXT/UTF8
  323. Codec ID/Info                            : UTF-8 Plain Text
  324. Duration                                 : 1 h 32 min
  325. Bit rate                                 : 59 b/s
  326. Count of elements                        : 1268
  327. Stream size                              : 39.9 KiB (0%)
  328. Language                                 : Romanian
  329. Default                                  : No
  330. Forced                                   : No

  331. Text #24
  332. ID                                       : 26
  333. Format                                   : UTF-8
  334. Codec ID                                 : S_TEXT/UTF8
  335. Codec ID/Info                            : UTF-8 Plain Text
  336. Duration                                 : 1 h 32 min
  337. Bit rate                                 : 81 b/s
  338. Count of elements                        : 1313
  339. Stream size                              : 55.1 KiB (0%)
  340. Language                                 : Russian
  341. Default                                  : No
  342. Forced                                   : No

  343. Text #25
  344. ID                                       : 27
  345. Format                                   : UTF-8
  346. Codec ID                                 : S_TEXT/UTF8
  347. Codec ID/Info                            : UTF-8 Plain Text
  348. Duration                                 : 1 h 32 min
  349. Bit rate                                 : 51 b/s
  350. Count of elements                        : 1138
  351. Stream size                              : 35.0 KiB (0%)
  352. Language                                 : Swedish
  353. Default                                  : No
  354. Forced                                   : No

  355. Text #26
  356. ID                                       : 28
  357. Format                                   : UTF-8
  358. Codec ID                                 : S_TEXT/UTF8
  359. Codec ID/Info                            : UTF-8 Plain Text
  360. Duration                                 : 1 h 32 min
  361. Bit rate                                 : 149 b/s
  362. Count of elements                        : 1351
  363. Stream size                              : 101 KiB (0%)
  364. Language                                 : Thai
  365. Default                                  : No
  366. Forced                                   : No

  367. Text #27
  368. ID                                       : 29
  369. Format                                   : UTF-8
  370. Codec ID                                 : S_TEXT/UTF8
  371. Codec ID/Info                            : UTF-8 Plain Text
  372. Duration                                 : 1 h 32 min
  373. Bit rate                                 : 53 b/s
  374. Count of elements                        : 1153
  375. Stream size                              : 36.0 KiB (0%)
  376. Language                                 : Turkish
  377. Default                                  : No
  378. Forced                                   : No

  379. Text #28
  380. ID                                       : 30
  381. Format                                   : UTF-8
  382. Codec ID                                 : S_TEXT/UTF8
  383. Codec ID/Info                            : UTF-8 Plain Text
  384. Duration                                 : 1 h 32 min
  385. Bit rate                                 : 69 b/s
  386. Count of elements                        : 1318
  387. Stream size                              : 46.7 KiB (0%)
  388. Language                                 : Vietnamese
  389. Default                                  : No
  390. Forced                                   : No

  391. Text #29
  392. ID                                       : 31
  393. Format                                   : UTF-8
  394. Codec ID                                 : S_TEXT/UTF8
  395. Codec ID/Info                            : UTF-8 Plain Text
  396. Duration                                 : 1 h 32 min
  397. Bit rate                                 : 61 b/s
  398. Count of elements                        : 1473
  399. Stream size                              : 41.9 KiB (0%)
  400. Title                                    : Simplified
  401. Language                                 : Chinese
  402. Default                                  : No
  403. Forced                                   : No

  404. Text #30
  405. ID                                       : 32
  406. Format                                   : UTF-8
  407. Codec ID                                 : S_TEXT/UTF8
  408. Codec ID/Info                            : UTF-8 Plain Text
  409. Duration                                 : 1 h 32 min
  410. Bit rate                                 : 56 b/s
  411. Count of elements                        : 1374
  412. Stream size                              : 37.9 KiB (0%)
  413. Title                                    : Traditional
  414. Language                                 : Chinese
  415. Default                                  : No
  416. Forced                                   : No
复制代码

冬季浪漫故事/下雪吧 Let.It.Snow.2019.1080p.NF.WEBRip.DD5.1.x264-FGT 2.78GB-2.png 冬季浪漫故事/下雪吧 Let.It.Snow.2019.1080p.NF.WEBRip.DD5.1.x264-FGT 2.78GB-3.png 冬季浪漫故事/下雪吧 Let.It.Snow.2019.1080p.NF.WEBRip.DD5.1.x264-FGT 2.78GB-4.png







VIP会员免费任意下载本站所有资源!---点击开通
回复

使用道具 举报

懒得打字嘛,点击右侧快捷回复 【右侧内容,后台自定义】
您需要登录后才可以回帖 登录 | 立即注册

本版积分规则

QQ|Archiver|手机版|小黑屋| 中国高清网 |网站地图 

GMT+8, 2019-11-15 09:56 , Processed in 0.303426 second(s), 37 queries .

Powered by HDchina X3.4

Copyright 2017-2019©HDchina.All right reserved

返回顶部 联系我们